Dying Light Update v1.5.0 Installation Fix-BAT | videók megtekintése | 0 ❤ Hocus Pocus 1993

Скачать через торрент [VIDEO] Зло, что творят люди The Evil That Men Do бесплатно русская версия torrent активатор

Статистика раздачи
Размер:  1.29 GB   |    Зарегистрирован:  1 год 8 месяцев   |    .torrent скачан:  19 раз   |   
Раздают:  1  
   
загрузка...
 
Автор Сообщение

Galfimbul

avatar Galfimbul


Зло, что творят люди / The Evil That Men Do
Год выпуска: 3 сентября 2015
Оригинальное название: The Evil That Men Do
Страна: Испания
Жанр: триллер
Возраст: -

Режиссер: Рамон Терменс / Ramon Térmens

В ролях: Даниэль Фаральдо, Эндрю Тарбет, Серхио Перис-Менчета, Приссила Дельгадо, Николь Колларс, Хосе Сефами, Джордж Альварадо

Описание: Два наемных убийцы, работающих на мексиканский картель, столкнулись с чем-то невообразимым: они получают под охрану 10-летнюю девочку, дочь главы конкурирующего клана, который похитил сына их босса.

Продолжительность: 01:34:01
Перевод: Любительский одноголосый [Хихикающий доктор]
Оригинальная дорожка: нет

Качество видео: BDRip Исходник: Blu-Ray Remux (1080p) Формат: mp4
Видео кодек: MPEG-4 AVC Аудио кодек: AAC
Видео: 1280x536 at 24.000 fps, AVC at 1 843 kbps avg, 0.112 bit/pixel
Аудио №1 Rus: 48.0 KHz, AAC, 2 ch, 128.0 Kbps
Субтитры: нет
Навигация по главам: нет
avs [info]: 1280x536p 1:1 @ 24/1 fps (cfr)
x264 [info]: using SAR=1/1
x264 [info]: using cpu capabilities: MMX2 SSE2Fast SSSE3 Cache64
x264 [info]: profile High, level 4.1
x264 [info]: frame I:913 Avg QP:13.32 size:101591
x264 [info]: frame P:25170 Avg QP:16.69 size: 26269
x264 [info]: frame B:107956 Avg QP:19.31 size: 4933
x264 [info]: consecutive B-frames: 1.2% 1.4% 5.0% 16.0% 17.0% 31.8% 10.0% 3.8% 4.2% 2.5% 2.7% 1.7% 2.7%
x264 [info]: mb I I16..4: 9.7% 62.3% 28.0%
x264 [info]: mb P I16..4: 2.3% 9.3% 1.4% P16..4: 41.7% 17.7% 14.8% 0.7% 0.4% skip:11.7%
x264 [info]: mb B I16..4: 0.2% 0.5% 0.1% B16..8: 38.2% 5.3% 1.0% direct: 4.3% skip:50.3% L0:45.3% L1:46.5% BI: 8.2%
x264 [info]: 8x8 transform intra:69.0% inter:59.7%
x264 [info]: direct mvs spatial:100.0% temporal:0.0%
x264 [info]: coded y,uvDC,uvAC intra: 64.7% 70.1% 45.9% inter: 13.3% 16.7% 2.3%
x264 [info]: i16 v,h,dc,p: 47% 17% 11% 25%
x264 [info]: i8 v,h,dc,ddl,ddr,vr,hd,vl,hu: 23% 15% 28% 4% 6% 7% 6% 6% 6%
x264 [info]: i4 v,h,dc,ddl,ddr,vr,hd,vl,hu: 28% 18% 15% 5% 8% 8% 7% 6% 5%
x264 [info]: i8c dc,h,v,p: 53% 19% 22% 6%
x264 [info]: Weighted P-Frames: Y:2.8% UV:1.0%
x264 [info]: ref P L0: 45.1% 9.7% 15.6% 7.5% 5.6% 4.9% 4.0% 2.7% 2.3% 2.5% 0.2% 0.0%
x264 [info]: ref B L0: 74.9% 10.6% 5.7% 2.7% 2.1% 1.6% 1.5% 0.6% 0.3%
x264 [info]: ref B L1: 91.6% 8.4%
x264 [info]: kb/s:1842.87
encoded 134039 frames, 2.63 fps, 1842.87 kb/s
GeneralComplete name : D:\Torrents\Download\Zlo_chto_tvoryat_lyudi_2015_KinoGadget.mp4Format : MPEG-4Format profile : Base MediaCodec ID : isomFile size : 1.29 GiBDuration : 1h 34mnOverall bit rate mode : VariableOverall bit rate : 1 960 KbpsMovie name : Зло, что творят людиPerformer : Рамон ТерменсGenre : ThrillerRecorded date : 2015Encoded date : UTC 2016-10-28 13:20:35Tagged date : UTC 2016-10-30 06:25:12Cover : Yes

ldes : Два наемных убийцы, работающих на мексиканский картель, столкнулись с чем-то невообразимым: они получают под охрану 10-летнюю девочку, дочь главы конкурирующего клана, который похитил сына их босса.hdvd : 1stik : 9

VideoID : 1Format : AVCFormat/Info : Advanced Video CodecFormat profile : [email protected]t settings, CABAC : YesFormat settings, ReFrames : 10 framesCodec ID : avc1Codec ID/Info : Advanced Video CodingDuration : 1h 33mnBit rate : 1 843 KbpsMaximum bit rate : 10.8 MbpsWidth : 1 280 pixelsHeight : 536 pixelsDisplay aspect ratio : 2.40:1Frame rate mode : ConstantFrame rate : 24.000 fpsColor space : YUVChroma subsampling : 4:2:0Bit depth : 8 bitsScan type : ProgressiveBits/(Pixel*Frame) : 0.112Stream size : 1.20 GiB (93%)Writing library : x264 core 148 r2638 7599210Encoding settings : cabac=1 / ref=10 / deblock=1:-1:-1 / analyse=0x3:0x133 / me=umh / subme=7 / psy=1 / psy_rd=1.00:0.15 / mixed_ref=1 / me_range=24 / chroma_me=1 / trellis=2 / 8x8dct=1 / cqm=0 / deadzone=21,11 / fast_pskip=1 / chroma_qp_offset=-3 / threads=3 / lookahead_threads=1 / sliced_threads=0 / nr=0 / decimate=1 / interlaced=0 / bluray_compat=0 / constrained_intra=0 / bframes=12 / b_pyramid=2 / b_adapt=2 / b_bias=0 / direct=3 / weightb=1 / open_gop=0 / weightp=2 / keyint=240 / keyint_min=24 / scenecut=40 / intra_refresh=0 / rc_lookahead=60 / rc=crf / mbtree=1 / crf=18.0 / qcomp=0.60 / qpmin=0 / qpmax=69 / qpstep=4 / ip_ratio=1.40 / aq=1:1.00Encoded date : UTC 2016-10-26 17:19:58Tagged date : UTC 2016-10-28 13:21:27

AudioID : 2Format : AACFormat/Info : Advanced Audio CodecFormat profile : LCCodec ID : 40Duration : 1h 34mnBit rate mode : VariableBit rate : 128 KbpsMaximum bit rate : 135 KbpsChannel(s) : 2 channelsChannel positions : Front: L RSampling rate : 48.0 KHzCompression mode : LossyStream size : 86.1 MiB (7%)Language : RussianEncoded date : UTC 2016-10-26 17:45:31Tagged date : UTC 2016-10-28 13:21:27


Трекер:  [ 30-Окт-2016 10:00 ]

  

Скачать .torrent

Размер .torrent файла 13 KB


Размер: 1.29 GB
Хэш (hash) релиза: 5ef986b7d2a13e1c57081f9e08123eaf894f19b9

Еще никто не оставлял запись к записи скачать торрент [VIDEO] Зло, что творят люди The Evil That Men Do . Будь первым!

!Обратная связь