Sengoku Basara | Crepusculo 2 | Beautiful Mixed Wallpapers Pack 802

Скачать через торрент [VIDEO] Первый мститель: Противостояние Captain America: Civil War бесплатно русская версия torrent активатор

Статистика раздачи
Размер:  2.01 GB   |    Зарегистрирован:  1 год 8 месяцев   |    .torrent скачан:  406 раз   |   
Раздают:  1  
   
загрузка...
 
Автор Сообщение

Galfimbul

avatar Galfimbul


Первый мститель: Противостояние / Captain America: Civil War
«Разделившись, мы падём»
Год выпуска: 12 апреля 2016
Оригинальное название: Captain America: Civil War
Страна: США, Германия
Жанр: фантастика, боевик, приключения
Возраст: 16+

Режиссер: Энтони Руссо, Джо Руссо / Anthony Russo, Joe Russo

В ролях: Крис Эванс, Роберт Дауни мл., Скарлетт Йоханссон, Себастьян Стэн, Энтони Маки, Дон Чидл, Джереми Реннер, Чэдвик Боузмэн, Пол Беттани, Элизабет Олсен

Описание: Мстители под руководством Капитана Америки оказываются участниками разрушительного инцидента, имеющего международный масштаб. Эти события заставляют правительство задуматься над тем, чтобы начать регулировать действия всех людей с особыми способностями, введя «Акт о регистрации супергероев», вынуждая их подчиняться ООН.

Видя в этом договоре нарушение гражданских прав и плевок на всё, во что он верит, Стив Роджерс открыто восстаёт против нового режима, ведя за собой группу героев, поддерживающих его мнение. В свою очередь, Тони Старк видит смысл в новом договоре и становится во главе героев, поддерживающих его. Всё это приводит к неизбежному расколу Мстителей и войне между сторонами. Сражаясь друг с другом, Старк и Роджерс не знают о том, что таинственный Барон Земо уже строит свои собственные планы, воспользовавшись расколом величайших героев Земли.

Продолжительность: 02:27:41
Перевод: Дублированное [iTunes]
Оригинальная дорожка: нет

Качество видео: BDRip Исходник: Blu-Ray Remux (1080p) Формат: mp4
Видео кодек: MPEG-4 AVC Аудио кодек: AAC
Видео: 1280536 at 23.976 fps, AVC at 1 810 kbps avg, 0.110 bit/pixel
Аудио №1 Rus: 48.0 KHz, AAC, 2 ch, 128.0 Kbps
Субтитры: русские (forced)
Навигация по главам: есть
avs [info]: 1280x536p 1:1 @ 24000/1001 fps (cfr)
[23.10.2016 13:46:02] x264 [info]: using SAR=1/1
[23.10.2016 13:46:02] x264 [info]: using cpu capabilities: MMX2 SSE2Fast SSSE3 Cache64
[23.10.2016 13:46:02] x264 [info]: profile High, level 4.1
[24.10.2016 12:09:47] x264 [info]: frame I:2107 Avg QP:15.26 size: 86376
[24.10.2016 12:09:47] x264 [info]: frame P:49324 Avg QP:18.83 size: 20140
[24.10.2016 12:09:47] x264 [info]: frame B:161042 Avg QP:21.26 size: 5153
[24.10.2016 12:09:47] x264 [info]: consecutive B-frames: 4.0% 3.8% 8.7% 15.6% 17.0% 38.3% 9.1% 1.8% 1.8%
[24.10.2016 12:09:47] x264 [info]: mb I I16..4: 10.0% 68.1% 21.9%
[24.10.2016 12:09:47] x264 [info]: mb P I16..4: 3.2% 14.0% 1.8% P16..4: 42.5% 12.9% 11.4% 0.4% 0.2% skip:13.6%
[24.10.2016 12:09:47] x264 [info]: mb B I16..4: 0.2% 1.0% 0.2% B16..8: 40.6% 5.3% 1.0% direct: 3.0% skip:48.7% L0:44.1% L1:49.3% BI: 6.6%
[24.10.2016 12:09:47] x264 [info]: 8x8 transform intra:72.8% inter:71.1%
[24.10.2016 12:09:47] x264 [info]: direct mvs spatial:100.0% temporal:0.0%
[24.10.2016 12:09:47] x264 [info]: coded y,uvDC,uvAC intra: 69.1% 70.1% 38.9% inter: 12.6% 14.5% 1.4%
[24.10.2016 12:09:47] x264 [info]: i16 v,h,dc,p: 24% 23% 7% 46%
[24.10.2016 12:09:47] x264 [info]: i8 v,h,dc,ddl,ddr,vr,hd,vl,hu: 19% 19% 19% 5% 7% 8% 8% 7% 8%
[24.10.2016 12:09:47] x264 [info]: i4 v,h,dc,ddl,ddr,vr,hd,vl,hu: 22% 21% 13% 6% 9% 8% 9% 6% 6%
[24.10.2016 12:09:47] x264 [info]: i8c dc,h,v,p: 53% 21% 19% 7%
[24.10.2016 12:09:47] x264 [info]: Weighted P-Frames: Y:3.0% UV:1.6%
[24.10.2016 12:09:47] x264 [info]: ref P L0: 54.3% 11.7% 15.7% 6.2% 4.6% 3.8% 3.2% 0.4% 0.0%
[24.10.2016 12:09:47] x264 [info]: ref B L0: 80.1% 10.4% 5.4% 2.4% 1.2% 0.5%
[24.10.2016 12:09:47] x264 [info]: ref B L1: 92.8% 7.2%
[24.10.2016 12:09:47] x264 [info]: kb/s:1810.20
encoded 212473 frames, 2.64 fps, 1810.20 kb/s
GeneralComplete name : D:\Torrents\Download\Pervyj_mstitel_protivostoyanie_2016_KinoGadget.mp4Format : MPEG-4Format profile : Base MediaCodec ID : isomFile size : 2.01 GiBDuration : 2h 27mnOverall bit rate mode : VariableOverall bit rate : 1 946 KbpsMovie name : Первый мститель: ПротивостояниеPerformer : Энтони Руссо, Джо РуссоGenre : Action, AdventureRecorded date : 2016Encoded date : UTC 2016-10-24 16:45:20Tagged date : UTC 2016-10-30 05:51:47Cover : YesiTunEXTC : mpaa|PG-13|300|

ldes : Мстители под руководством Капитана Америки оказываются участниками разрушительного инцидента, имеющего международный масштаб. Эти события заставляют правительство задуматься над тем, чтобы начать регулировать действия всех людей с особыми способностями, введя «Акт о регистрации супергероев», вынуждая их подчиняться ООН.hdvd : 1stik : 9

VideoID : 1Format : AVCFormat/Info : Advanced Video CodecFormat profile : [email protected] settings, CABAC : YesFormat settings, ReFrames : 7 framesCodec ID : avc1Codec ID/Info : Advanced Video CodingDuration : 2h 27mnBit rate : 1 810 KbpsMaximum bit rate : 15.9 MbpsWidth : 1 280 pixelsHeight : 536 pixelsDisplay aspect ratio : 2.40:1Frame rate mode : ConstantFrame rate : 23.976 fpsColor space : YUVChroma subsampling : 4:2:0Bit depth : 8 bitsScan type : ProgressiveBits/(Pixel*Frame) : 0.110Stream size : 1.87 GiB (93%)Writing library : x264 core 148 r2638 7599210Encoding settings : cabac=1 / ref=7 / deblock=1:-1:-1 / analyse=0x3:0x133 / me=umh / subme=7 / psy=1 / psy_rd=1.00:0.15 / mixed_ref=1 / me_range=24 / chroma_me=1 / trellis=2 / 8x8dct=1 / cqm=0 / deadzone=21,11 / fast_pskip=1 / chroma_qp_offset=-3 / threads=3 / lookahead_threads=1 / sliced_threads=0 / nr=0 / decimate=1 / interlaced=0 / bluray_compat=0 / constrained_intra=0 / bframes=8 / b_pyramid=2 / b_adapt=2 / b_bias=0 / direct=3 / weightb=1 / open_gop=0 / weightp=2 / keyint=240 / keyint_min=23 / scenecut=40 / intra_refresh=0 / rc_lookahead=60 / rc=crf / mbtree=1 / crf=19.0 / qcomp=0.60 / qpmin=0 / qpmax=69 / qpstep=4 / ip_ratio=1.40 / aq=1:1.00Encoded date : UTC 2016-10-24 14:31:41Tagged date : UTC 2016-10-24 16:50:29

AudioID : 2Format : AACFormat/Info : Advanced Audio CodecFormat profile : LCCodec ID : 40Duration : 2h 27mnBit rate mode : VariableBit rate : 128 KbpsMaximum bit rate : 135 KbpsChannel(s) : 2 channelsChannel positions : Front: L RSampling rate : 48.0 KHzCompression mode : LossyStream size : 135 MiB (7%)Language : RussianEncoded date : UTC 2016-10-24 15:25:51Tagged date : UTC 2016-10-24 16:50:29

TextID : 3Format : Timed textCodec ID : tx3gDuration : 1h 45mnBit rate mode : VariableBit rate : 3 bpsStream size : 2.14 KiB (0%)Language : RussianEncoded date : UTC 2016-10-24 16:50:28Tagged date : UTC 2016-10-24 16:50:29

Menu00:00:00.000 : Chapter 100:09:01.958 : Chapter 200:13:04.993 : Chapter 300:21:03.345 : Chapter 400:27:53.380 : Chapter 500:31:57.290 : Chapter 600:35:08.398 : Chapter 700:42:58.451 : Chapter 800:52:04.621 : Chapter 901:05:39.102 : Chapter 1001:16:41.639 : Chapter 1101:22:28.777 : Chapter 1201:29:29.489 : Chapter 1301:34:09.769 : Chapter 1401:45:38.582 : Chapter 1501:55:54.322 : Chapter 1602:02:35.056 : Chapter 1702:12:14.176 : Chapter 1802:18:29.384 : Chapter 19


Трекер:  [ 30-Окт-2016 09:30 ]

  

Скачать .torrent

Размер .torrent файла 10 KB


Размер: 2.01 GB
Хэш (hash) релиза: 37e3906a44f136e7240647492d6dfeec8e041f13

Торренты, похожие на [VIDEO] Первый мститель: Противостояние Captain America: Civil War скачать торрент

Форум Название Автор Размер S L Добавлен
Видео (Фильмы/Клипы) ·· [VIDEO] Первый мститель: Противостояние / Captain America: Civil War (Энтони Руссо, Джо Руссо) [2016, США, HDRip] [MP4, 640x] Dub iTunes Galfimbul 810560764773 MB 0 0 1472585770

22:36

30-Авг-16

Еще никто не оставлял запись к записи скачать торрент [VIDEO] Первый мститель: Противостояние Captain America: Civil War . Будь первым!

!Обратная связь