Microsoft Windows 7 Home Premium x64 x86 With SP1 CRBS | Ein gesegnetes Team | Victor Sen Yung

Скачать через торрент [VIDEO] Мышиная охота Mousehunt бесплатно русская версия torrent активатор

Статистика раздачи
Размер:  843 MB   |    Зарегистрирован:  1 год 8 месяцев   |    .torrent скачан:  18 раз   |   
Раздают:  1  
   
загрузка...
 
Автор Сообщение

Galfimbul

avatar Galfimbul


Мышиная охота / Mousehunt
Год выпуска: 1997
Страна: США
Жанр: комедия, семейный
Продолжительность: 01:37:34
Перевод: Профессиональный (дублированный) Ист-Вест
Режиссер: Гор Вербински / Gore Verbinski
В ролях: Натан Лэйн, Ли Эванс, Мори Чайкин, Кристофер Уокен, Вики Льюис, Дебра Кристофферсон, Камилла Сёэберг, Йен Эберкромби, Аннабелль Гурвич
Описание: Братья Ларс и Эрни Шмунц не придают особого значения унаследованному ими старому полуразрушенному особняку до тех пор, пока они не узнают, что их ветхая недвижимость стоит миллионы. Но есть одна проблема. Чтобы продать дом, братья должны избавиться от его единственного и упрямого обитателя — маленькой, но очень цепкой мыши. То, что поначалу кажется детской игрой, становится настоящей грандиозной битвой.
Качество: WEB-DLRip
Формат: MP4
Видео: MPEG-4 Visual, 640x360 (16:9), 1080 Kbps, 23,976 fps
Аудио: Русский, AAC, 2 ch, 128 Kbps, 48 KHz
ОбщееПолное имя : D:\Раздачи\Mousehunt.1997.WEB-DLRip.640x.mp4Формат : MPEG-4Профиль формата : Base Media / Version 2Идентификатор кодека : mp42 (isom/mp42/3gp5)Размер файла : 843 МбайтПродолжительность : 1 ч. 37 м.Режим общего битрейта : ПеременныйОбщий поток : 1207 Кбит/секДата кодирования : UTC 2016-10-27 08:39:49Дата пометки : UTC 2016-10-27 08:39:49

ВидеоИдентификатор : 201Формат : MPEG-4 VisualПрофиль формата : [email protected]Параметр BVOP формата : НетПараметр QPel формата : НетПараметр GMC формата : Без точки переходаПараметр матрицы формата : Default (H.263)Идентификатор кодека : 20Продолжительность : 1 ч. 37 м.Вид битрейта : ПеременныйБитрейт : 1080 Кбит/секМаксимальный битрейт : 9616 Кбит/секШирина : 640 пикселейВысота : 360 пикселейСоотношение сторон : 16:9Режим частоты кадров : ПостоянныйЧастота кадров : 23,976 (24000/1001) кадра/секЦветовое пространство : YUVСубдискретизация насыщенности : 4:2:0Битовая глубина : 8 битТип развёртки : ПрогрессивнаяМетод сжатия : С потерямиБит/(Пиксели*Кадры) : 0.195Размер потока : 753 Мбайт (89%)Библиотека кодирования : Lavc52.30.2Дата кодирования : UTC 2016-10-27 08:39:49Дата пометки : UTC 2016-10-27 08:41:16

АудиоИдентификатор : 101Формат : AACФормат/Информация : Advanced Audio CodecПрофиль формата : LCИдентификатор кодека : 40Продолжительность : 1 ч. 37 м.Вид битрейта : ПеременныйБитрейт : 125 Кбит/секМаксимальный битрейт : 153 Кбит/секКаналы : 2 каналаРасположение каналов : Front: L RЧастота : 48,0 КГцЧастота кадров : 46,875 кадров/сек (1024 spf)Метод сжатия : С потерямиРазмер потока : 87,4 Мбайт (10%)Дата кодирования : UTC 2016-10-27 08:41:02Дата пометки : UTC 2016-10-27 08:41:16

Прочее #1Идентификатор : 2Тип : Object descriptionФормат : SystemИдентификатор кодека : 1Продолжительность : 1 с. 0 мс.Дата кодирования : UTC 2016-10-27 08:41:16Дата пометки : UTC 2016-10-27 08:41:16

Прочее #2Идентификатор : 1Тип : Scene descriptionФормат : System CoreИдентификатор кодека : 2Продолжительность : 1 с. 0 мс.Дата кодирования : UTC 2016-10-27 08:41:16Дата пометки : UTC 2016-10-27 08:41:16


Трекер:  [ 28-Окт-2016 16:00 ]

  

Скачать .torrent

Размер .torrent файла 17 KB


Размер: 843 MB
Хэш (hash) релиза: e8cb569a5beb38ce0a021de4ae381d56f1e67b41

Еще никто не оставлял запись к записи скачать торрент [VIDEO] Мышиная охота Mousehunt . Будь первым!

!Обратная связь