Danny Phantom | Family Guy | Drama Stage

Скачать через торрент [MULT] Энди Панда Andy Panda бесплатно русская версия torrent активатор

Статистика раздачи
Размер:  1.51 GB   |    Зарегистрирован:  1 год 8 месяцев   |    .torrent скачан:  21 раз   |   
Раздают:  1  
   
загрузка...
 
Автор Сообщение

Galfimbul

avatar Galfimbul


Энди Панда / Andy Panda
Год выпуска: 1939 - 1949
Страна: США
Жанр: мультфильм, комедия
Продолжительность: ~00:07:00 серия
Перевод#1: Профессиональный (дублированный) Selena Int., по заказу ОРТ (на серии 01-11, 14-26, 28)
Перевод#2: Авторский (одноголосый, закадровый) В. Горчаков (на серию 27)
Режиссер: Алекс Лови / Alex Lovy, Берт Джиллетт / Burt Gillett
Описание: Однажды в лесу произошло знаменательное событие. Миссис Панда была одарена щедрой рукой судьбы и этим подарком оказался очаровательный малыш Энди. Когда он подрос, заботливый папа Панда решил лично заняться его воспитанием. Вместе с сыном он отправился в дикие джунгли, чтобы познакомить его со всеми секретами, красотами и опасностями, которые таит в себе природа. Но каждый раз их поучительная прогулка оканчивалась каким либо недоразумением и авантюрой. Эта забавная парочка буквально притягивала к себе неприятности, при этом сам Энди всегда спешил помочь отцу и исправить ситуацию. Однако всё становилось ещё хуже и многострадальный Панда оказывался в ещё более неудобном положении.
Качество: DVDRip, SATRip
Формат: MP4
Видео: MPEG-4 Visual, 480x360 (4:3), 1080 Kbps, 23,976 fps
Аудио: Русский, AAC, 2 ch, 128 Kbps, 48 KHz
01. Life Begins for Andy Panda
02. Andy Panda Goes Fishing
03. 100 Pygmies and Andy Panda
04. Crazy House
05. Knock Knock
06. Mouse Trappers
07. Dizzy Kitty
08. Under the Spreading Blacksmith''s Shop
09. Good-Bye Mr. Moth
10. Nutty Pine Cabin
11. Andy Panda''s Victory Garden
12. Air Raid Warden - отсутствует в раздаче
13. Canine Commandos - отсутствует в раздаче
14. Meatless Tuesday
15. Fish Fry
16. The Painter and The Pointer
17. Crow Crazy
18. The Poet and the Peasant
19. Mousie Come Home
20. Apple Andy
21. The Wacky Weed
22. Musical Moments from Chopin
23. The Bandmaster
24. Banquet Busters
25. Playful Pelican
26. Dog Tax Dodgers
27. Scrappy Birthday - авторский одноголосый перевод Василия Горчакова
28. Andy Panda''s Pop
ОбщееПолное имя : D:\Раздачи\Andy Panda 480x\05 - Knock Knock [DVDRip].mp4Формат : MPEG-4Профиль формата : Base Media / Version 2Идентификатор кодека : mp42 (isom/mp42/3gp5)Размер файла : 60,1 МбайтПродолжительность : 7 м. 0 с.Режим общего битрейта : ПеременныйОбщий поток : 1201 Кбит/секДата кодирования : UTC 2016-10-21 05:40:41Дата пометки : UTC 2016-10-21 05:40:41

ВидеоИдентификатор : 201Формат : MPEG-4 VisualПрофиль формата : [email protected]Параметр BVOP формата : НетПараметр QPel формата : НетПараметр GMC формата : Без точки переходаПараметр матрицы формата : Default (H.263)Идентификатор кодека : 20Продолжительность : 7 м. 0 с.Вид битрейта : ПеременныйБитрейт : 1073 Кбит/секМаксимальный битрейт : 3483 Кбит/секШирина : 480 пикселейВысота : 360 пикселейСоотношение сторон : 4:3Режим частоты кадров : ПостоянныйЧастота кадров : 23,976 (24000/1001) кадра/секЦветовое пространство : YUVСубдискретизация насыщенности : 4:2:0Битовая глубина : 8 битТип развёртки : ПрогрессивнаяМетод сжатия : С потерямиБит/(Пиксели*Кадры) : 0.259Размер потока : 53,7 Мбайт (89%)Библиотека кодирования : Lavc52.30.2Дата кодирования : UTC 2016-10-21 05:40:41Дата пометки : UTC 2016-10-21 05:40:43

АудиоИдентификатор : 101Формат : AACФормат/Информация : Advanced Audio CodecПрофиль формата : LCИдентификатор кодека : 40Продолжительность : 7 м. 0 с.Вид битрейта : ПеременныйБитрейт : 126 Кбит/секМаксимальный битрейт : 235 Кбит/секКаналы : 2 каналаРасположение каналов : Front: L RЧастота : 48,0 КГцЧастота кадров : 46,875 кадров/сек (1024 spf)Метод сжатия : С потерямиРазмер потока : 6,29 Мбайт (10%)Дата кодирования : UTC 2016-10-21 05:40:42Дата пометки : UTC 2016-10-21 05:40:43

Прочее #1Идентификатор : 2Тип : Object descriptionФормат : SystemИдентификатор кодека : 1Продолжительность : 1 с. 0 мс.Дата кодирования : UTC 2016-10-21 05:40:43Дата пометки : UTC 2016-10-21 05:40:43

Прочее #2Идентификатор : 1Тип : Scene descriptionФормат : System CoreИдентификатор кодека : 2Продолжительность : 1 с. 0 мс.Дата кодирования : UTC 2016-10-21 05:40:43Дата пометки : UTC 2016-10-21 05:40:43
<a href="viewtopic.php?t=5292887" class="postLink">Инспектор Уиллоби / Inspector Willoughby</a>
<a href="viewtopic.php?t=5289072" class="postLink">Семейный альбом Бари / The Beary's Family Album</a>


Трекер:  [ 24-Окт-2016 09:00 ]

  

Скачать .torrent

Размер .torrent файла 17 KB


Размер: 1.51 GB
Хэш (hash) релиза: 96b0b8ebe729cc7e09819e97ef611dc03d19267e

Еще никто не оставлял запись к записи скачать торрент [MULT] Энди Панда Andy Panda . Будь первым!

!Обратная связь