add Family Guy to bookmarks | The Strangers: Prey at Night | Milena Pavlovic

Скачать через торрент музыку Твое имя Kimi no Na wa. бесплатно без регистрации torrent

Статистика раздачи
Размер:  554 MB   |    Зарегистрирован:  1 год 8 месяцев   |    .torrent скачан:  18 раз   |   
Раздают:  1  
   
загрузка...
 
Автор Сообщение

Galfimbul

avatar Galfimbul


君の名は。 | Kimi no Na wa. | Your Name
RADWIMPS
Название альбома: Your Name
Композитор: Yojiro Noda, Akira Kuwahara, Yusuke Takeda
Год выпуска: 2016
Страна: Япония
Catalog №: UPCH-20423

Аудио кодек: FLAC (*.flac)
Тип рипа: image+.cue
Битрейт аудио: lossless
Продолжительность: 01:13:13
Наличие сканов в содержимом раздачи: да

Треклист:
01. Yumetourou (2:12)
02. Mitsuha No Tsugaku (1:08)
03. Itomori Koukou (1:52)
04. Hajimeteno Tokyo (1:20)
05. Akogare Cafe (1:32)
06. Okudera Senpai No Theme (2:07)
07. Futari No Ihen (2:37)
08. Zenzenzense (Movie Version) (4:46)
09. Goshintai (3:28)
10. Date (4:06)
11. Akimatsuri (1:08)
12. Kioku Wo Yobiokosu Taki (1:43)
13. Hida Tanhou (1:32)
14. Kieta Machi (1:56)
15. Toshokan (1:44)
16. Ryokan No Yoru (1:34)
17. Goshintaie Futatabi (2:23)
18. Kuchikamizake Trip (2:55)
19. Sakusen Kaigi (2:24)
20. Chocho Settoku (2:49)
21. Mitsuha No Theme (4:06)
22. Mienai Futari (0:53)
23. Kataware Doki (2:50)
24. Sparkle (Movie Version) (8:58)
25. Date 2 (2:09)
26. Nandemonaiya (Movie Edit) (3:17)
27. Nandemonaiya (Movie Version) (5:44)

VGMDB
Exact Audio Copy V1.0 beta 6 from 9. April 2015

EAC extraction logfile from 19. October 2016, 15:48

Unknown Artist / Unknown Title

Used drive : PIONEER BD-RW BDR-208M Adapter: 1 ID: 0

Read mode : SecureUtilize accurate stream : YesDefeat audio cache : YesMake use of C2 pointers : No

Read offset correction : 667Overread into Lead-In and Lead-Out : NoFill up missing offset samples with silence : YesDelete leading and trailing silent blocks : NoNull samples used in CRC calculations : YesUsed interface : Native Win32 interface for Win NT & 2000

Used output format : Internal WAV RoutinesSample format : 44.100 Hz; 16 Bit; Stereo

TOC of the extracted CD

Track | Start | Length | Start sector | End sector --------------------------------------------------------- 1 | 0:00.00 | 2:11.50 | 0 | 9874 2 | 2:11.50 | 1:08.15 | 9875 | 14989 3 | 3:19.65 | 1:51.42 | 14990 | 23356 4 | 5:11.32 | 1:19.60 | 23357 | 29341 5 | 6:31.17 | 1:32.17 | 29342 | 36258 6 | 8:03.34 | 2:07.08 | 36259 | 45791 7 | 10:10.42 | 2:36.56 | 45792 | 57547 8 | 12:47.23 | 4:45.66 | 57548 | 78988 9 | 17:33.14 | 3:27.74 | 78989 | 94587 10 | 21:01.13 | 4:05.68 | 94588 | 113030 11 | 25:07.06 | 1:07.74 | 113031 | 118129 12 | 26:15.05 | 1:43.02 | 118130 | 125856 13 | 27:58.07 | 1:32.37 | 125857 | 132793 14 | 29:30.44 | 1:55.63 | 132794 | 141481 15 | 31:26.32 | 1:43.54 | 141482 | 149260 16 | 33:10.11 | 1:33.61 | 149261 | 156296 17 | 34:43.72 | 2:23.19 | 156297 | 167040 18 | 37:07.16 | 2:55.08 | 167041 | 180173 19 | 40:02.24 | 2:24.07 | 180174 | 190980 20 | 42:26.31 | 2:49.07 | 190981 | 203662 21 | 45:15.38 | 4:06.11 | 203663 | 222123 22 | 49:21.49 | 0:53.27 | 222124 | 226125 23 | 50:15.01 | 2:50.02 | 226126 | 238877 24 | 53:05.03 | 8:57.49 | 238878 | 279201 25 | 62:02.52 | 2:09.01 | 279202 | 288877 26 | 64:11.53 | 3:16.68 | 288878 | 303645 27 | 67:28.46 | 5:44.04 | 303646 | 329449

Range status and errors

Selected range

Filename D:\EAC\[EAC][160824] 映画『君の名は。』主題歌&OST - 君の名は。(通常盤)/RADWIMPS (wav+cue+log+png)\UPCH-20423.wav

Peak level 100.0 % Extraction speed 7.8 X Range quality 100.0 % Copy CRC 540AB0B7 Copy OK

No errors occurred

AccurateRip summary

Track 1 accurately ripped (confidence 13) [D47291F0] (AR v2)Track 2 accurately ripped (confidence 12) [6A5A4F38] (AR v2)Track 3 accurately ripped (confidence 12) [4F813210] (AR v2)Track 4 accurately ripped (confidence 12) [409E71AA] (AR v2)Track 5 accurately ripped (confidence 12) [7957076A] (AR v2)Track 6 accurately ripped (confidence 12) [E758AA99] (AR v2)Track 7 accurately ripped (confidence 12) [C0EB3C43] (AR v2)Track 8 accurately ripped (confidence 13) [C4C8A2C2] (AR v2)Track 9 accurately ripped (confidence 12) [7320B208] (AR v2)Track 10 accurately ripped (confidence 12) [CF2E8282] (AR v2)Track 11 accurately ripped (confidence 12) [EAC0591B] (AR v2)Track 12 accurately ripped (confidence 12) [DF681A81] (AR v2)Track 13 accurately ripped (confidence 12) [9F182A88] (AR v2)Track 14 accurately ripped (confidence 12) [655DE075] (AR v2)Track 15 accurately ripped (confidence 12) [815BD5AD] (AR v2)Track 16 accurately ripped (confidence 12) [ABEDD74E] (AR v2)Track 17 accurately ripped (confidence 12) [1B460CBD] (AR v2)Track 18 accurately ripped (confidence 12) [BCCF34D8] (AR v2)Track 19 accurately ripped (confidence 12) [563EECB5] (AR v2)Track 20 accurately ripped (confidence 12) [65F30920] (AR v2)Track 21 accurately ripped (confidence 12) [E99ACE99] (AR v2)Track 22 accurately ripped (confidence 12) [A425D18B] (AR v2)Track 23 accurately ripped (confidence 12) [789C16B7] (AR v2)Track 24 accurately ripped (confidence 13) [EDBE1503] (AR v2)Track 25 accurately ripped (confidence 12) [3A645025] (AR v2)Track 26 accurately ripped (confidence 13) [DC40F9E2] (AR v2)Track 27 accurately ripped (confidence 13) [98D346A9] (AR v2)

All tracks accurately ripped

End of status report

---- CUETools DB Plugin V2.1.6

[CTDB TOCID: c4iyYrxODAOFzESTkKujjx5tJss-] foundSubmit result: c4iyYrxODAOFzESTkKujjx5tJss- has been confirmedTrack | CTDB Status 1 | (880/882) Accurately ripped 2 | (878/882) Accurately ripped 3 | (878/882) Accurately ripped 4 | (879/882) Accurately ripped 5 | (879/882) Accurately ripped 6 | (879/882) Accurately ripped 7 | (880/882) Accurately ripped 8 | (880/882) Accurately ripped 9 | (880/882) Accurately ripped 10 | (880/882) Accurately ripped 11 | (877/882) Accurately ripped 12 | (878/882) Accurately ripped 13 | (877/882) Accurately ripped 14 | (876/882) Accurately ripped 15 | (878/882) Accurately ripped 16 | (877/882) Accurately ripped 17 | (878/882) Accurately ripped 18 | (879/882) Accurately ripped 19 | (876/882) Accurately ripped 20 | (878/882) Accurately ripped 21 | (876/882) Accurately ripped 22 | (878/882) Accurately ripped 23 | (879/882) Accurately ripped 24 | (875/882) Accurately ripped 25 | (877/882) Accurately ripped 26 | (874/882) Accurately ripped 27 | (812/882) Accurately ripped, or (8/882) differs in 2976 samples @05:43:64-05:43:68, or (7/882) differs in 4308 samples @05:43:62-05:43:68, or (14/882) differs in 4302 samples @05:43:62-05:43:68, or (5/882) differs in 2838 samples @05:43:64-05:43:68, or (5/882) differs in 4404 samples @05:43:62-05:43:68, or (2/882) differs in 2946 samples @05:43:64-05:43:68, or (7/882) differs in 2858 samples @05:43:65-05:43:69, or (4/882) differs in 4310 samples @05:43:62-05:43:68

==== Log checksum 82E62FAB64D808F0C3C74203760C90C5FC22E35BA43D326283A9F76997EE05C1 ====
-----------------------

DON'T MODIFY THIS FILE

-----------------------

PERFORMER: auCDtect Task Manager, ver. 1.6.0 RC1 build 1.6.0.1Copyright (c) 2008-2010 y-soft. All rights reservedhttp://y-soft.org

ANALYZER: auCDtect: CD records authenticity detector, version 0.8.2Copyright (c) 2004 Oleg Berngardt. All rights reserved.Copyright (c) 2004 Alexander Djourik. All rights reserved.

FILE: UPCH-20423.flac Size: 375265252 Hash: 22EB46C52847184932AE5FFE1A863149 Accuracy: -m0 Conclusion: CDDA 99% Signature: 2C82AACD01653830E04DAD31C5556C0120D8A14B


Трекер:  [ 23-Окт-2016 21:30 ]

  

Скачать .torrent

Размер .torrent файла 23 KB


Размер: 554 MB
Хэш (hash) релиза: 3219e94410c446e4a4bf6244ca6ff1d67c974203

Еще никто не оставлял запись к записи скачать торрент Твое имя Kimi no Na wa. . Будь первым!

!Обратная связь