dominika211 | Близкие (2017) WEB-DLRip от Files-x | SoftMaker Office Professional 2012.675.Retail

Скачать через торрент [SERIAL] Люк Кейдж Luke Cage бесплатно русская версия torrent активатор

Статистика раздачи
Размер:  2.04 GB   |    Зарегистрирован:  1 год 9 месяцев   |    .torrent скачан:  320 раз   |   
Раздают:  1  
   
загрузка...
 
Автор Сообщение

Galfimbul

avatar Galfimbul


<span class="post-font-impact">✦ юк Кейдж / Luke Cage ✦</span>
Информация о фильме:
❖ Страна: США
❖ Производство: Berlanti Productions, Bonanza Productions, DC Entertainment, Warner Bros. Television
❖ Год выпуска: 2016
❖ Жанр: фантастика, боевик, триллер, криминал
❖ Режиссер: Пол МакГиган, Энди Годдар, Марк Йобст
❖ В ролях: Махершала Али, Майк Колтер, Фрэнки Фэйзон, Дариус Калеб, Симона Кук, Тео Росси, Фрэнк Уэйли, Элфри Вудард, Джейд Ву и др.

❖ Перевод: Профессиональный (многоголосый, закадровый) [LostFilm]
❖ Продолжительность: По ~00:50:00

❖ Релиз от:
❖ Автор рипа: ProT1gR

Описание фильма:
Карл Лукас, он же Люк Кейдж, получил сверхсилу и невиданную выносливость - непробиваемую кожу. Ранее, используя свои способности, Кейдж сбежал из тюрьмы и стал героем по найму. После истории с Джессикой Джонс супергерой пытается начать новую жизнь в нью-йоркском районе Гарлем. Однако Люку все же придется выйти из тени, чтобы защитить родной город и встретиться лицом к лицу с прошлым, от которого он пытался убежать.



Эпизод 1. Момент истины (Moment of Truth)
Эпизод 2. Законы улиц (Code of the Streets)
Эпизод 3. Кто возьмёт груз на себя? (Who's Gonna Take the Weight?)
Эпизод 4. Выход на арену (Step in the Arena)
Эпизод 5. Ради репутации (Just to Get a Rep)
Эпизод 6. Охранники нужны лохам (Suckas Need Bodyguards)
General
Complete name : Marvels.Luke.Cage.[S01E01].LF.[Kaztorrents].mp4
Format : MPEG-4
Format profile : Base Media
Codec ID : isom
File size : 349 MiB
Duration : 54mn 12s
Overall bit rate mode : Variable
Overall bit rate : 899 Kbps
Encoded date : UTC 2016-10-21 19:32:15
Tagged date : UTC 2016-10-21 19:32:15

Video
ID : 1
Format : MPEG-4 Visual
Format profile : Advanced [email protected]
Format settings, BVOP : Yes
Format settings, QPel : Yes
Format settings, GMC : 3 warppoints
Format settings, Matrix : Default (H.263)
Codec ID : 20
Duration : 54mn 12s
Bit rate mode : Variable
Bit rate : 768 Kbps
Maximum bit rate : 7 685 Kbps
Width : 640 pixels
Height : 360 pixels
Display aspect ratio : 16:9
Frame rate mode : Constant
Frame rate : 23.976 fps
Color space : YUV
Chroma subsampling : 4:2:0
Bit depth : 8 bits
Scan type : Progressive
Compression mode : Lossy
Bits/(Pixel*Frame) : 0.139
Stream size : 298 MiB (85%)
Title : [email protected]-DEV-rev248-g39d5978-master
Writing library : XviD 73
Encoded date : UTC 2016-10-21 19:32:15
Tagged date : UTC 2016-10-21 19:32:29

Audio
ID : 2
Format : AAC
Format/Info : Advanced Audio Codec
Format profile : LC
Codec ID : 40
Duration : 54mn 12s
Bit rate mode : Variable
Bit rate : 128 Kbps
Maximum bit rate : 155 Kbps
Channel(s) : 2 channels
Channel positions : Front: L R
Sampling rate : 48.0 KHz
Compression mode : Lossy
Stream size : 49.6 MiB (14%)
Encoded date : UTC 2016-10-21 18:40:08
Tagged date : UTC 2016-10-21 19:32:29
Технические данные файла:
❖ Качество: WEB-DLRip
❖ Формат: MP4
❖ Видео кодек: XviD
❖ Аудио кодек: AAC-LC
❖ Видео: 640x360 (16:9), 23.976 fps, 768 kbps (0.139 bit/pixel)
❖ Аудио: 48.0 KHz, 2 ch, 128 kbps
Внимание! Раздача ведётся путём добавления новых серий; при каждом добавлении создаётся новый торрент. Чтобы начать докачку новой серии, пользователям необходимо сделать следующее:
(1) остановить скачивание,
(2) удалить старый торрент-файл у себя из клиента (старые серии удалять не надо),
(3) скачать новый торрент-файл из раздачи и запустить его у себя в клиенте вместо старого, при этом указать клиенту путь в старую папку, куда и должно происходить скачивание новых серий.
Ваш клиент при этом должен произвести хеширование (проверку) старой папки (если не производит сам - помогите ему сделать это), и будет докачивать только те серии, которых у вас ещё нет. Старые серии при этом не удаляются, а продолжают раздаваться!
Eсли вы уже удалили старые серии, то предотвратить повторную закачку старых серий можно, отжав галочку в соответсвующих местах при запуске нового торрента. По возможности, желательно не удалять старые серии как можно дольше, чтобы релизёр не столько продолжал раздавать старые серии, а смог сконцентрироваться на новых.


Трекер:  [ 23-Окт-2016 21:30 ]

  

Скачать .torrent

Размер .torrent файла 11 KB


Размер: 2.04 GB
Хэш (hash) релиза: 14ef250af9cb2b11c6271d1cac874a9f7227d6d3

Еще никто не оставлял запись к записи скачать торрент [SERIAL] Люк Кейдж Luke Cage . Будь первым!

!Обратная связь