Fortitude | Suivante | Off the Air

Скачать через торрент [SERIAL] Профиль убийцы-2 Сезон: 2 бесплатно русская версия torrent активатор

Статистика раздачи
Размер:  2.31 GB   |    Зарегистрирован:  1 год 8 месяцев   |    .torrent скачан:  12 раз   |   
Раздают:  1  
   
загрузка...
 
Автор Сообщение

Galfimbul

avatar Galfimbul


<span class="post-font-impact">✦ Профиль убийцы-2 ✦

<span class="post-font-serif1">Сезон 2, эпизоды с 1 по 8 (из 24)</span></span>
Информация о фильме:
❖ Страна: Россия
❖ Производство: ООО "Студия "Центр Кинопроизводства", ООО "Форвард-фильм"
❖ Год выпуска: 2015
❖ Жанр: Детектив
❖ Режиссер: Владимир Койфман
❖ В ролях: Вадим Андреев, Максим Щёголев, Денис Матросов, Владислав Дунаев, Евгений Гусев, Сергей Пиоро, Ольга Куликова, Дмитрий Грачев (II), Артём Кобзев, Сергей Колешня, Елена Любимова, Екатерина Михайлова (III), Александр Никольский, Поля Полякова, Валентин Самохин, Тимофей Смирнов, Максим Терлецкий, Константин Тополага, Руслан Ягудин, Николай Бендера, Алексей Бояджи, Дмитрий Буренков, Ольга Молочная, Денис Первойкин, Сесиль Свердлова, Руслан Спояло, Александр Числов, Сергей Васильев (VII), Ирина Крохина, Андрей Белозеров, Сергей Усков, Андрей Негривода, Дмитрий Юмашев, Ксения Суркова, Андрей Зайцев (II), Алексей Овсянников

❖ Перевод: Не требуется
❖ Продолжительность: По ~00:44:00

❖ Релиз от:
❖ Автор рипа: ProT1gR

Описание фильма:
Во втором сезоне сериала «Профиль убийцы» зрители вновь встретятся с уже знакомыми им профайлерами - сотрудниками особого отдела, занимающегося раскрытием серийных убийств и изнасилований по всей России. Полковники Удальцов, Петров, подполковник Круглов и капитан Субботина - ребята с железными нервами и острым умом. Они анализируют поведение маньяков, входя в их образ, проникая в их сознание. В новом сезоне отдел профайлеров значительно поредел - на пенсию отправили полковника Петрова. Но работы так много, что Петров постоянно помогает коллегам в качестве эксперта и научного консультанта. В разработку группы попадает маньяк провозгласивший себя Миссионером, он истребляет всех заблудших и сбившихся с правильного пути людей - бродяг, проституток. Этот контингент не побежит жаловаться в полицию, что их кто-то преследует. До них никому нет дела… Профайлерам удастся раскрыть преступление двадцатилетней давности, и даже спасти от неминуемого суда своего руководителя - генерала Губанова. Но герои сериала не только опытные сыщики с изощренным умом. Они такие же люди, как и все, и им тоже, подчас, не хватает простых человеческих радостей и положительных эмоций. Возможно, что им они нужны даже больше чем обычным людям. Удальцов встретит свою первую любовь, и пожар любви вспыхнет с новой силой. Круглов и Субботина неоднократно пытаются назначить день свадьбы, но каждый раз очередное дело отрывает их от счастливого дня. Это становится серьезной проблемой для пары. Но перспектив к облегчению работы, увы, никаких. Дела становиться все запутанней и страшней. Каждое новое дело - это новая жуткая трагедия и чем быстрее профайлеры составят «профиль убийцы», тем больше жизней им удастся уберечь.

Эпизод 1-2 "Дембельский аккорд"
В городе Невельске обнаружен труп девушки, пропавшей шесть лет назад. Группа полковника Удальцова выезжает на место. Выясняется, что уже задержаны двое друзей - Соснов и Левадов, дружившие с погибшей. Изучив дела, профайлеры - так называют специалистов по составлению психологических портретов преступников - засомневались в виновности задержанных. Узнав, что кроме этого есть и другие похожие случаи, профайлеры составляют портрет преступника. Он помогает определить убийцу и задержать его.

Эпизод 3-4 "Королева красоты"
В городе Саранске найдена убитой Алена Цветкова, накануне выигравшая конкурс красоты. Она оказалась одной из пяти жертв, тела которых обнаружены в городском парке. Удальцов направляет туда подполковника Круглова. Очередной жертвой маньяка становится вице-мисс конкурса. Перелопатив все дела, профайлеры выходят на убийцу. Ею оказывается... спонсор конкурса госпожа Кремнева. Смертельно больная, брошенная мужем, она мстила всем, на кого он обращал внимание.

Эпизод 5-6 "Байкальский зверь"
Генерал Губанов едет в отпуск в далекий городок у Байкала. И становится обвиняемым по делу о серии жестоких убийств. Московское начальство открещивается от своего подчиненного. На помощь генералу приходит местный следователь Ксения Кузнецова, которая сообщает Удальцову о задержании Губанова. В Южно-Байкальск срочно вылетает Круглов...

Эпизод 7-8 "Миссионер"
По городу прокатывается волна жестоких убийств бомжей и проституток. Подозрения падают на банду скинхедов, которые в последнее время активизировались в этих районах. Скинхедов задерживают, но убийства не прекращаются. Степан, которого коллеги кличут "Пифагором", находит в сети игру, в которой главный герой борется со злом в лице бомжей и проституток. Степан считает, что автор игры и есть убийца. И оказывается прав.
General
Complete name : Profil.ubijcy-2.(01.seriya.iz.24).2015.HDTVRip.[Kaztorrents].mp4
Format : MPEG-4
Format profile : Base Media
Codec ID : isom
File size : 296 MiB
Duration : 46mn 2s
Overall bit rate mode : Variable
Overall bit rate : 899 Kbps
Encoded date : UTC 2016-10-22 07:16:38
Tagged date : UTC 2016-10-22 07:16:38

Video
ID : 1
Format : MPEG-4 Visual
Format profile : Advanced [email protected]
Format settings, BVOP : Yes
Format settings, QPel : Yes
Format settings, GMC : 3 warppoints
Format settings, Matrix : Default (H.263)
Codec ID : 20
Duration : 46mn 2s
Bit rate mode : Variable
Bit rate : 768 Kbps
Maximum bit rate : 4 368 Kbps
Width : 640 pixels
Height : 360 pixels
Display aspect ratio : 16:9
Frame rate mode : Constant
Frame rate : 25.000 fps
Color space : YUV
Chroma subsampling : 4:2:0
Bit depth : 8 bits
Scan type : Progressive
Compression mode : Lossy
Bits/(Pixel*Frame) : 0.133
Stream size : 253 MiB (85%)
Title : [email protected]-DEV-rev248-g39d5978-master
Writing library : XviD 73
Encoded date : UTC 2016-10-22 07:16:38
Tagged date : UTC 2016-10-22 07:16:48

Audio
ID : 2
Format : AAC
Format/Info : Advanced Audio Codec
Format profile : LC
Codec ID : 40
Duration : 46mn 2s
Bit rate mode : Variable
Bit rate : 128 Kbps
Maximum bit rate : 153 Kbps
Channel(s) : 2 channels
Channel positions : Front: L R
Sampling rate : 48.0 KHz
Compression mode : Lossy
Stream size : 42.1 MiB (14%)
Encoded date : UTC 2016-10-22 06:43:36
Tagged date : UTC 2016-10-22 07:16:48
Технические данные файла:
❖ Качество: HDTVRip
❖ Формат: MP4
❖ Видео кодек: XviD
❖ Аудио кодек: AAC-LC
❖ Видео: 640x360 (16:9), 25 fps, 768 kbps (0.133 bit/pixel)
❖ Аудио: 48.0 KHz, 2 ch, 128 kbps
Внимание! Раздача ведётся путём добавления новых серий; при каждом добавлении создаётся новый торрент. Чтобы начать докачку новой серии, пользователям необходимо сделать следующее:
(1) остановить скачивание,
(2) удалить старый торрент-файл у себя из клиента (старые серии удалять не надо),
(3) скачать новый торрент-файл из раздачи и запустить его у себя в клиенте вместо старого, при этом указать клиенту путь в старую папку, куда и должно происходить скачивание новых серий.
Ваш клиент при этом должен произвести хеширование (проверку) старой папки (если не производит сам - помогите ему сделать это), и будет докачивать только те серии, которых у вас ещё нет. Старые серии при этом не удаляются, а продолжают раздаваться!
Eсли вы уже удалили старые серии, то предотвратить повторную закачку старых серий можно, отжав галочку в соответсвующих местах при запуске нового торрента. По возможности, желательно не удалять старые серии как можно дольше, чтобы релизёр не столько продолжал раздавать старые серии, а смог сконцентрироваться на новых.


Трекер:  [ 23-Окт-2016 21:30 ]

  

Скачать .torrent

Размер .torrent файла 12 KB


Размер: 2.31 GB
Хэш (hash) релиза: 32b685f303e3d981516a011b5e63b1b98f4c0c37

Еще никто не оставлял запись к записи скачать торрент [SERIAL] Профиль убийцы-2 Сезон: 2 . Будь первым!

!Обратная связь