Futakaku Kankei | Mafia Blues 2 : La rechute | White Fang (2018)

Скачать через торрент [VIDEO] Капитан Фантастик Captain Fantastic бесплатно русская версия torrent активатор

Статистика раздачи
Размер:  1.82 GB   |    Зарегистрирован:  1 год 8 месяцев   |    .torrent скачан:  26 раз   |   
Раздают:  1  
   
загрузка...
 
Автор Сообщение

Galfimbul

avatar Galfimbul


Капитан Фантастик / Captain Fantastic
«Он подготовил их ко всему, кроме настоящей жизни»
Год выпуска: 2016
Оригинальное название: Captain Fantastic
Страна: США
Жанр: драма, мелодрама, комедия
Возраст: 16+

Режиссер: Мэтт Росс

В ролях: Вигго Мортенсен, Джордж МакКэй, Саманта Ислер, Анналиса Бассо, Николас Хэмилтон, Шри Крукс, Чарли Шотуэлл, Трин Миллер, Кэтрин Хан, Стив Зан

Описание: Они говорят на нескольких языках, знают квантовую физику и разбираются в философии. Они умеют охотиться и обращаться с оружием. Они живут в лесу в полной гармонии с природой. Лишь стечение обстоятельств заставляет их покинуть родной дом и отправиться в большой город. Что будет, когда они столкнутся с цивилизацией, когда на них обрушится первая любовь и мир гаджетов и социальных сетей?

Продолжительность: 01:59:29
Перевод: Профессиональный многоголосый [iTunes]
Оригинальная дорожка: нет

Автор рипа:

Качество видео: BDRip Исходник: Blu-Ray Remux (1080p) Формат: mp4
Видео кодек: MPEG-4 AVC Аудио кодек: AAC
Видео: 1280x532 at 23.976 fps, AVC at 2 047 kbps avg, 0.125 bit/pixel
Аудио №1 Rus: 48.0 KHz, AAC, 2 ch, 128.0 Kbps
Субтитры: нет
Навигация по главам: есть
avs [info]: 1280x532p 1:1 @ 24000/1001 fps (cfr)
x264 [info]: using SAR=1/1
x264 [info]: using cpu capabilities: MMX2 SSE2Fast SSSE3 Cache64
x264 [info]: profile High, level 4.1
x264 [info]: frame I:1554 Avg QP:16.27 size:107841
x264 [info]: frame P:36700 Avg QP:19.97 size: 24998
x264 [info]: frame B:133638 Avg QP:22.26 size: 5611
x264 [info]: consecutive B-frames: 2.0% 2.3% 5.8% 27.1% 16.1% 30.0% 7.2% 5.7% 3.7%
x264 [info]: mb I I16..4: 11.0% 68.2% 20.8%
x264 [info]: mb P I16..4: 1.8% 9.7% 1.5% P16..4: 42.2% 14.5% 13.4% 0.5% 0.2% skip:16.1%
x264 [info]: mb B I16..4: 0.1% 0.7% 0.2% B16..8: 39.5% 5.2% 1.1% direct: 3.2% skip:50.0% L0:43.6% L1:48.7% BI: 7.7%
x264 [info]: 8x8 transform intra:72.0% inter:73.6%
x264 [info]: direct mvs spatial:99.7% temporal:0.3%
x264 [info]: coded y,uvDC,uvAC intra: 70.8% 85.3% 65.9% inter: 14.6% 22.2% 4.9%
x264 [info]: i16 v,h,dc,p: 38% 18% 6% 38%
x264 [info]: i8 v,h,dc,ddl,ddr,vr,hd,vl,hu: 22% 14% 18% 5% 8% 9% 8% 8% 8%
x264 [info]: i4 v,h,dc,ddl,ddr,vr,hd,vl,hu: 38% 12% 10% 5% 9% 8% 7% 6% 5%
x264 [info]: i8c dc,h,v,p: 52% 16% 21% 11%
x264 [info]: Weighted P-Frames: Y:4.9% UV:2.6%
x264 [info]: ref P L0: 51.4% 13.2% 15.9% 5.4% 4.7% 3.4% 3.2% 2.4% 0.4% 0.0%
x264 [info]: ref B L0: 82.3% 8.4% 4.2% 2.0% 1.9% 0.8% 0.4%
x264 [info]: ref B L1: 94.5% 5.5%
x264 [info]: kb/s:2047.48
encoded 171892 frames, 2.47 fps, 2047.48 kb/s
GeneralComplete name : D:\Torrents\Download\Kapitan_fantastik_2016_KinoGadget.mp4Format : MPEG-4Format profile : Base MediaCodec ID : isomFile size : 1.82 GiBDuration : 1h 59mnOverall bit rate mode : VariableOverall bit rate : 2 183 KbpsMovie name : Капитан ФантастикPerformer : Мэтт РоссGenre : Comedy, Drama, RomanceRecorded date : 2016Encoded date : UTC 2016-10-23 03:53:23Tagged date : UTC 2016-10-23 04:17:32Cover : YesiTunEXTC : mpaa|R|400|

ldes : Они говорят на нескольких языках, знают квантовую физику и разбираются в философии. Они умеют охотиться и обращаться с оружием. Они живут в лесу в полной гармонии с природой. Лишь стечение обстоятельств заставляет их покинуть родной дом и отправиться в большой город. Что будет, когда они столкнутся с цивилизацией, когда на них обрушится первая любовь и мир гаджетов и социальных сетей?hdvd : 1stik : 9

VideoID : 1Format : AVCFormat/Info : Advanced Video CodecFormat profile : [email protected] settings, CABAC : YesFormat settings, ReFrames : 8 framesCodec ID : avc1Codec ID/Info : Advanced Video CodingDuration : 1h 59mnBit rate : 2 047 KbpsMaximum bit rate : 11.4 MbpsWidth : 1 280 pixelsHeight : 532 pixelsDisplay aspect ratio : 2.40:1Frame rate mode : ConstantFrame rate : 23.976 fpsColor space : YUVChroma subsampling : 4:2:0Bit depth : 8 bitsScan type : ProgressiveBits/(Pixel*Frame) : 0.125Stream size : 1.71 GiB (94%)Writing library : x264 core 148 r2638 7599210Encoding settings : cabac=1 / ref=8 / deblock=1:-1:-1 / analyse=0x3:0x133 / me=umh / subme=7 / psy=1 / psy_rd=1.00:0.15 / mixed_ref=1 / me_range=24 / chroma_me=1 / trellis=2 / 8x8dct=1 / cqm=0 / deadzone=21,11 / fast_pskip=1 / chroma_qp_offset=-3 / threads=3 / lookahead_threads=1 / sliced_threads=0 / nr=0 / decimate=1 / interlaced=0 / bluray_compat=0 / constrained_intra=0 / bframes=8 / b_pyramid=2 / b_adapt=2 / b_bias=0 / direct=3 / weightb=1 / open_gop=0 / weightp=2 / keyint=240 / keyint_min=23 / scenecut=40 / intra_refresh=0 / rc_lookahead=60 / rc=crf / mbtree=1 / crf=20.0 / qcomp=0.60 / qpmin=0 / qpmax=69 / qpstep=4 / ip_ratio=1.40 / aq=1:1.00Encoded date : UTC 2016-10-23 03:28:28Tagged date : UTC 2016-10-23 03:54:27

AudioID : 2Format : AACFormat/Info : Advanced Audio CodecFormat profile : LCCodec ID : 40Duration : 1h 59mnBit rate mode : VariableBit rate : 128 KbpsMaximum bit rate : 135 KbpsChannel(s) : 2 channelsChannel positions : Front: L RSampling rate : 48.0 KHzCompression mode : LossyStream size : 109 MiB (6%)Language : RussianEncoded date : UTC 2016-10-23 03:40:35Tagged date : UTC 2016-10-23 03:54:27

Menu00:00:00.000 : 00:00:00.00000:05:14.272 : 00:05:14.27200:11:12.046 : 00:11:12.04600:17:34.220 : 00:17:34.22000:25:20.728 : 00:25:20.72800:31:37.187 : 00:31:37.18700:37:41.509 : 00:37:41.50900:40:25.548 : 00:40:25.54800:46:10.601 : 00:46:10.60100:54:03.449 : 00:54:03.44900:59:34.696 : 00:59:34.69601:08:21.431 : 01:08:21.43101:14:08.486 : 01:14:08.48601:20:18.647 : 01:20:18.64701:24:30.774 : 01:24:30.77401:30:19.331 : 01:30:19.33101:36:52.807 : 01:36:52.80701:43:03.719 : 01:43:03.71901:48:23.163 : 01:48:23.16301:52:47.344 : 01:52:47.344
<a href="tracker.php?rid=39840292" class="postLink"> </a>

Трекер:  [ 23-Окт-2016 21:30 ]

  

Скачать .torrent

Размер .torrent файла 18 KB


Размер: 1.82 GB
Хэш (hash) релиза: 9ba93929a4ba5000ba6cff3b93b1175506baefbb

Еще никто не оставлял запись к записи скачать торрент [VIDEO] Капитан Фантастик Captain Fantastic . Будь первым!

!Обратная связь