War Monthly Issue 40 | Alien Vs. Zombies | Советское кино (DVD)

Скачать через торрент [VIDEO] Темнота The Darkness бесплатно русская версия torrent активатор

Статистика раздачи
Размер:  1.32 GB   |    Зарегистрирован:  1 год 8 месяцев   |    .torrent скачан:  19 раз   |   
Раздают:  1  
   
загрузка...
 
Автор Сообщение

Galfimbul

avatar Galfimbul


Темнота / The Darkness
«Evil comes home»
Год выпуска: 2016
Оригинальное название: The Darkness
Страна: США
Жанр: ужасы, триллер
Возраст: 16+

Режиссер: Грег МакЛин

В ролях: Дженнифер Моррисон, Люси Фрай, Кевин Бэйкон, Рада Митчелл, Минг-На, Дэвид Мазоуз, Мэтт Уолш, Тара Барр, Пол Райзер, Ильза Розарио

Описание: После отпуска в Гранд-Каньоне семья возвращается домой, невольно прихватив с собой нечто сверхъестественное. Не заставив себя долго ждать, это нечто начинает питаться их страхами и секретами…

Продолжительность: 01:32:21
Перевод: Дублированный [iTunes]
Оригинальная дорожка: нет

Автор рипа:

Качество видео: BDRip Исходник: Blu-Ray Remux (1080p) Формат: mp4
Видео кодек: MPEG-4 AVC Аудио кодек: AAC
Видео: 1280x536 at 23.976 fps, AVC at 1 916 kbps avg, 0.116 bit/pixel
Аудио №1 Rus: 48.0 KHz, AAC, 2 ch, 128.0 Kbps
Субтитры: русские (forced)
Навигация по главам: есть
avs [info]: 1280x536p 1:1 @ 24000/1001 fps (cfr)
x264 [info]: using SAR=1/1
x264 [info]: using cpu capabilities: MMX2 SSE2Fast SSSE3 Cache64
x264 [info]: profile High, level 4.1
x264 [info]: frame I:1215 Avg QP:14.15 size:105382
x264 [info]: frame P:26160 Avg QP:17.18 size: 21766
x264 [info]: frame B:105498 Avg QP:18.90 size: 5972
x264 [info]: consecutive B-frames: 2.2% 1.8% 5.8% 10.1% 15.5% 47.3% 7.8% 2.0% 2.4% 2.2% 3.0%
x264 [info]: mb I I16..4: 11.0% 71.1% 17.9%
x264 [info]: mb P I16..4: 2.0% 9.1% 1.2% P16..4: 45.5% 14.7% 14.4% 0.4% 0.2% skip:12.6%
x264 [info]: mb B I16..4: 0.1% 0.6% 0.1% B16..8: 44.6% 5.1% 0.9% direct: 3.6% skip:44.9% L0:44.8% L1:49.5% BI: 5.7%
x264 [info]: 8x8 transform intra:74.2% inter:68.0%
x264 [info]: direct mvs spatial:100.0% temporal:0.0%
x264 [info]: coded y,uvDC,uvAC intra: 78.0% 83.6% 63.9% inter: 14.2% 18.0% 2.8%
x264 [info]: i16 v,h,dc,p: 35% 15% 10% 40%
x264 [info]: i8 v,h,dc,ddl,ddr,vr,hd,vl,hu: 22% 13% 24% 5% 7% 8% 7% 8% 7%
x264 [info]: i4 v,h,dc,ddl,ddr,vr,hd,vl,hu: 25% 17% 15% 6% 9% 8% 8% 6% 6%
x264 [info]: i8c dc,h,v,p: 55% 16% 20% 8%
x264 [info]: Weighted P-Frames: Y:5.2% UV:2.6%
x264 [info]: ref P L0: 51.8% 8.8% 18.8% 6.7% 5.6% 4.1% 3.8% 0.4% 0.0%
x264 [info]: ref B L0: 77.7% 11.9% 5.9% 2.7% 1.4% 0.5%
x264 [info]: ref B L1: 92.1% 7.9%
x264 [info]: kb/s:1916.30
encoded 132873 frames, 2.92 fps, 1916.30 kb/s
GeneralComplete name : D:\Torrents\Download\Temnota_2016_KinoGadget.mp4Format : MPEG-4Format profile : Base MediaCodec ID : isomFile size : 1.32 GiBDuration : 1h 32mnOverall bit rate mode : VariableOverall bit rate : 2 052 KbpsMovie name : ТемнотаPerformer : Грег МакЛинGenre : Horror, ThrillerRecorded date : 2016Encoded date : UTC 2016-10-21 13:33:53Tagged date : UTC 2016-10-21 16:23:02Cover : YesiTunEXTC : mpaa|PG-13|300|

ldes : После отпуска в Гранд-Каньоне семья возвращается домой, невольно прихватив с собой нечто сверхъестественное. Не заставив себя долго ждать, это нечто начинает питаться их страхами и секретами…hdvd : 1stik : 9

VideoID : 1Format : AVCFormat/Info : Advanced Video CodecFormat profile : [email protected] settings, CABAC : YesFormat settings, ReFrames : 7 framesCodec ID : avc1Codec ID/Info : Advanced Video CodingDuration : 1h 32mnBit rate : 1 916 KbpsMaximum bit rate : 18.6 MbpsWidth : 1 280 pixelsHeight : 536 pixelsDisplay aspect ratio : 2.40:1Frame rate mode : ConstantFrame rate : 23.976 fpsColor space : YUVChroma subsampling : 4:2:0Bit depth : 8 bitsScan type : ProgressiveBits/(Pixel*Frame) : 0.116Stream size : 1.24 GiB (93%)Writing library : x264 core 148 r2638 7599210Encoding settings : cabac=1 / ref=7 / deblock=1:-1:-1 / analyse=0x3:0x133 / me=umh / subme=7 / psy=1 / psy_rd=1.00:0.15 / mixed_ref=1 / me_range=24 / chroma_me=1 / trellis=2 / 8x8dct=1 / cqm=0 / deadzone=21,11 / fast_pskip=1 / chroma_qp_offset=-3 / threads=3 / lookahead_threads=1 / sliced_threads=0 / nr=0 / decimate=1 / interlaced=0 / bluray_compat=0 / constrained_intra=0 / bframes=10 / b_pyramid=2 / b_adapt=2 / b_bias=0 / direct=3 / weightb=1 / open_gop=0 / weightp=2 / keyint=240 / keyint_min=23 / scenecut=40 / intra_refresh=0 / rc_lookahead=60 / rc=crf / mbtree=1 / crf=18.0 / qcomp=0.60 / qpmin=0 / qpmax=69 / qpstep=4 / ip_ratio=1.40 / aq=1:1.00Encoded date : UTC 2016-10-21 08:28:20Tagged date : UTC 2016-10-21 13:34:48

AudioID : 2Format : AACFormat/Info : Advanced Audio CodecFormat profile : LCCodec ID : 40Duration : 1h 32mnBit rate mode : VariableBit rate : 128 KbpsMaximum bit rate : 135 KbpsChannel(s) : 2 channelsChannel positions : Front: L RSampling rate : 48.0 KHzCompression mode : LossyStream size : 84.5 MiB (6%)Language : RussianEncoded date : UTC 2016-10-21 13:18:22Tagged date : UTC 2016-10-21 13:34:48

TextID : 3Format : Timed textCodec ID : tx3gDuration : 1h 21mnBit rate mode : VariableBit rate : 2 bpsStream size : 1.42 KiB (0%)Language : RussianEncoded date : UTC 2016-10-21 13:34:48Tagged date : UTC 2016-10-21 13:34:48

Menu00:00:00.000 : Chapter 0100:04:41.656 : Chapter 0200:09:00.081 : Chapter 0300:15:41.273 : Chapter 0400:22:20.213 : Chapter 0500:26:36.803 : Chapter 0600:30:03.510 : Chapter 0700:35:40.138 : Chapter 0800:39:25.529 : Chapter 0900:43:58.385 : Chapter 1000:50:38.785 : Chapter 1100:55:15.895 : Chapter 1200:58:59.994 : Chapter 1301:02:44.177 : Chapter 1401:06:51.841 : Chapter 1501:11:18.482 : Chapter 1601:14:59.786 : Chapter 1701:20:04.758 : Chapter 1801:26:02.365 : Chapter 1901:27:29.619 : Chapter 20
<a href="tracker.php?rid=39840292" class="postLink"> </a>

Трекер:  [ 21-Окт-2016 20:00 ]

  

Скачать .torrent

Размер .torrent файла 13 KB


Размер: 1.32 GB
Хэш (hash) релиза: 50da1a444365d970f108a620bdddb26f937c192f

Еще никто не оставлял запись к записи скачать торрент [VIDEO] Темнота The Darkness . Будь первым!

!Обратная связь