LE DOUDOU | Cine93.com - Peliculas 2015 Online Gratis! | Sciacalli nella notte

Скачать через торрент [VIDEO] День независимости: Возрождение Independence Day: Resurgence бесплатно русская версия torrent активатор

Статистика раздачи
Размер:  2.18 GB   |    Зарегистрирован:  1 год 8 месяцев   |    .torrent скачан:  336 раз   |   
Раздают:  1  
   
загрузка...
 
Автор Сообщение

Galfimbul

avatar Galfimbul


День независимости: Возрождение / Independence Day: Resurgence
«У нас было двадцать лет на подготовку. У них тоже»

Год выпуска: 20 июня 2016
Оригинальное название: Independence Day: Resurgence
Страна: США
Жанр: фантастика, боевик, приключения
Возраст: 12+

Режиссер: Роланд Эммерих

В ролях: Лиам Хемсворт, Джефф Голдблюм, Джесси Ашер, Билл Пуллман, Майка Монро, Села Уорд, Уильям Фихтнер, Джадд Хёрш, Брент Спайнер, Трэвис Тоуп, Патрик Ст. Эсприт, Вивика А. Фокс, Анджела Бейби, Шарлотта Генсбур, Деобиа Опарей, Николас Райт, Чин Хань, МакКенна Грейс

Описание: Два десятилетия прошло с момента нашествия инопланетян на Землю. Благодаря технологиям пришельцев человечество в своем развитии шагнуло далеко вперед. Но никакое совершенное оружие не способно остановить второе вторжение беспощадных монстров из космоса. Судьба цивилизации в руках горстки отважных героев – смогут ли они спасти нашу планету от истребления?

Продолжительность: 01:59:44
Перевод: Дублированный [лицензия]
Оригинальная дорожка: нет

Автор рипа:

Качество видео: BDRip Исходник: Blu-Ray Remux (1080p) Формат: mp4
Видео кодек: MPEG-4 AVC Аудио кодек: AAC
Видео: 1280x532 at 23.976 fps, AVC at 2 469 kbps avg, 0.151 bit/pixel
Аудио №1 Rus: 48.0 KHz, AAC, 2 ch, 128.0 Kbps
Субтитры: русские (форсированные)
Навигация по главам: есть
avs [info]: 1280x532p 1:1 @ 24000/1001 fps (cfr)
x264 [info]: using SAR=1/1
x264 [info]: using cpu capabilities: MMX2 SSE2Fast SSSE3 Cache64
x264 [info]: profile High, level 4.1
x264 [info]: frame I:1872 Avg QP:15.61 size: 90200
x264 [info]: frame P:36020 Avg QP:18.66 size: 25114
x264 [info]: frame B:134355 Avg QP:19.91 size: 8510
x264 [info]: consecutive B-frames: 2.2% 2.2% 4.9% 24.7% 16.6% 33.7% 6.1% 4.9% 1.7% 1.6% 1.3%
x264 [info]: mb I I16..4: 11.8% 67.3% 20.9%
x264 [info]: mb P I16..4: 4.5% 11.7% 1.6% P16..4: 44.0% 17.6% 12.5% 0.3% 0.1% skip: 7.8%
x264 [info]: mb B I16..4: 0.1% 1.5% 0.1% B16..8: 43.4% 7.4% 1.4% direct: 5.1% skip:41.0% L0:45.0% L1:49.9% BI: 5.2%
x264 [info]: 8x8 transform intra:69.9% inter:69.6%
x264 [info]: direct mvs spatial:99.3% temporal:0.7%
x264 [info]: coded y,uvDC,uvAC intra: 70.2% 80.8% 54.5% inter: 18.6% 20.6% 2.8%
x264 [info]: i16 v,h,dc,p: 65% 9% 8% 17%
x264 [info]: i8 v,h,dc,ddl,ddr,vr,hd,vl,hu: 15% 12% 36% 5% 6% 6% 7% 6% 7%
x264 [info]: i4 v,h,dc,ddl,ddr,vr,hd,vl,hu: 32% 16% 16% 5% 7% 6% 7% 5% 5%
x264 [info]: i8c dc,h,v,p: 57% 19% 17% 8%
x264 [info]: Weighted P-Frames: Y:7.2% UV:4.6%
x264 [info]: ref P L0: 48.8% 10.3% 17.0% 6.4% 4.9% 3.5% 2.9% 1.7% 1.5% 1.4% 1.3% 0.2% 0.0%
x264 [info]: ref B L0: 75.3% 11.3% 5.2% 2.5% 1.7% 1.4% 1.1% 0.8% 0.4% 0.2%
x264 [info]: ref B L1: 92.7% 7.3%
x264 [info]: kb/s:2468.57
encoded 172247 frames, 2.52 fps, 2468.57 kb/s
GeneralComplete name : D:\Torrents\Download\Den_nezavisimosti_vozrozhdenie_2015_KinoGadget.mp4Format : MPEG-4Format profile : Base MediaCodec ID : isomFile size : 2.18 GiBDuration : 1h 59mnOverall bit rate mode : VariableOverall bit rate : 2 604 KbpsMovie name : День независимости: ВозрождениеPerformer : Роланд ЭммерихGenre : Action, AdventureRecorded date : 2015Encoded date : UTC 2016-10-19 14:47:11Tagged date : UTC 2016-10-19 16:22:05Cover : YesiTunEXTC : mpaa|PG-13|300|

ldes : Два десятилетия прошло с момента нашествия инопланетян на Землю. Благодаря технологиям пришельцев человечество в своем развитии шагнуло далеко вперед. Но никакое совершенное оружие не способно остановить второе вторжение беспощадных монстров из космоса. Судьба цивилизации в руках горстки отважных героев – смогут ли они спасти нашу планету от истребления?hdvd : 1stik : 9

VideoID : 1Format : AVCFormat/Info : Advanced Video CodecFormat profile : [email protected] settings, CABAC : YesFormat settings, ReFrames : 11 framesCodec ID : avc1Codec ID/Info : Advanced Video CodingDuration : 1h 59mnBit rate : 2 469 KbpsMaximum bit rate : 12.7 MbpsWidth : 1 280 pixelsHeight : 532 pixelsDisplay aspect ratio : 2.40:1Frame rate mode : ConstantFrame rate : 23.976 fpsColor space : YUVChroma subsampling : 4:2:0Bit depth : 8 bitsScan type : ProgressiveBits/(Pixel*Frame) : 0.151Stream size : 2.06 GiB (95%)Writing library : x264 core 148 r2638 7599210Encoding settings : cabac=1 / ref=11 / deblock=1:-1:-1 / analyse=0x3:0x133 / me=umh / subme=7 / psy=1 / psy_rd=1.00:0.15 / mixed_ref=1 / me_range=24 / chroma_me=1 / trellis=2 / 8x8dct=1 / cqm=0 / deadzone=21,11 / fast_pskip=1 / chroma_qp_offset=-3 / threads=3 / lookahead_threads=1 / sliced_threads=0 / nr=0 / decimate=1 / interlaced=0 / bluray_compat=0 / constrained_intra=0 / bframes=10 / b_pyramid=2 / b_adapt=2 / b_bias=0 / direct=3 / weightb=1 / open_gop=0 / weightp=2 / keyint=240 / keyint_min=23 / scenecut=40 / intra_refresh=0 / rc_lookahead=60 / rc=crf / mbtree=1 / crf=21.0 / qcomp=0.60 / qpmin=0 / qpmax=69 / qpstep=4 / ip_ratio=1.40 / aq=1:1.50Encoded date : UTC 2016-10-19 14:08:37Tagged date : UTC 2016-10-19 14:48:07

AudioID : 2Format : AACFormat/Info : Advanced Audio CodecFormat profile : LCCodec ID : 40Duration : 1h 59mnBit rate mode : VariableBit rate : 128 KbpsMaximum bit rate : 135 KbpsChannel(s) : 2 channelsChannel positions : Front: L RSampling rate : 48.0 KHzCompression mode : LossyStream size : 110 MiB (5%)Language : RussianEncoded date : UTC 2016-10-19 14:16:59Tagged date : UTC 2016-10-19 14:48:07

TextID : 3Format : Timed textCodec ID : tx3gDuration : 1h 59mnBit rate mode : VariableBit rate : 1 bpsStream size : 1.06 KiB (0%)Language : RussianEncoded date : UTC 2016-10-19 14:48:07Tagged date : UTC 2016-10-19 14:48:07

Menu00:00:00.000 : Chapter 0100:05:37.336 : Chapter 0300:09:15.471 : Chapter 0500:14:06.720 : Chapter 0700:19:40.470 : Chapter 0900:22:59.002 : Chapter 1100:27:10.253 : Chapter 1300:31:37.645 : Chapter 1500:39:11.974 : Chapter 1700:43:41.118 : Chapter 1900:47:46.613 : Chapter 2100:52:32.190 : Chapter 2300:59:10.255 : Chapter 2501:02:00.133 : Chapter 2701:07:12.069 : Chapter 2901:09:54.815 : Chapter 3101:13:11.720 : Chapter 3301:18:27.452 : Chapter 3501:22:45.502 : Chapter 3701:27:51.808 : Chapter 3901:32:36.717 : Chapter 4101:39:38.138 : Chapter 4301:47:20.142 : Chapter 4501:50:36.713 : Chapter 4701:59:43.926 : Chapter 49
<a href="tracker.php?rid=39840292" class="postLink"> </a>

Трекер:  [ 19-Окт-2016 20:00 ]

  

Скачать .torrent

Размер .torrent файла 11 KB


Размер: 2.18 GB
Хэш (hash) релиза: eddd6953d75cb460c72cbc89e96f85dab58bd0f3

Торренты, похожие на [VIDEO] День независимости: Возрождение Independence Day: Resurgence скачать торрент

Форум Название Автор Размер S L Добавлен
Видео (Фильмы/Клипы) ·· [VIDEO] День независимости: Возрождение / Independence Day: Resurgence (Роланд Эммерих / Roland Emmerich) [2016, фантастика, боевик, приключения, BDRip] [MP4, 1280x] Galfimbul 23388343642.18 GB 0 0 1479204440

13:07

15-Ноя-16

Еще никто не оставлял запись к записи скачать торрент [VIDEO] День независимости: Возрождение Independence Day: Resurgence . Будь первым!

!Обратная связь