72.STAR-893
女经理 Manger 2018 HD720P X264 AAC English 中文字幕

Скачать через торрент [SERIAL] Ментовские войны бесплатно русская версия torrent активатор

Статистика раздачи
Размер:  467 MB   |    Зарегистрирован:  1 год 6 месяцев   |    .torrent скачан:  21 раз   |   
Раздают:  1  
   
загрузка...
 
Автор Сообщение

Galfimbul

avatar Galfimbul


<span class="post-font-impact">✦ Легенды завтрашнего дня / DC's Legends of Tomorrow ✦</span>
Информация о фильме:
❖ Страна: Россия
❖ Производство: Студия "Панорама" по заказу ООО «Форвард-Фильм»
❖ Год выпуска: 2016
❖ Жанр: Боевик, детектив, криминал
❖ Режиссер: Денис Скворцов
❖ В ролях: Александр Устюгов, Дмитрий Быковский-Ромашов, Всеволод Цурило, Светлана Смирнова-Кацагаджиева, Мария Иванова (IV), Андрей Кузнецов, Андрей Аладьин, Сергей Хомченков, Дмитрий Лебедев (III), Мария Фефилова, Ольга Павловец, Дмитрий Мухамадеев, Мария Цветкова, Аркадий Коваль, Роберт Студеновский, Андрей Родимов, Андрей Карако, Елизавета Ковалёва, Евгения Устюгова, Вадим Акимкин, Игорь Петрусенко, Жанна Куприянова, Наталья Мызникова, Лора Коробских, Сергей Глазков (II), Дмитрий Трофимов, Иван Забашта, Пётр Сова, Тарас Цимбалюк, Егор Бакулин, Алексей Осипов (IV)

❖ Перевод: Не требуется
❖ Продолжительность: По ~00:44:00

❖ Релиз от:
❖ Автор рипа: ProT1gR

Описание фильма:
Прошел год, как Шилова и его верных друзей перевели в отдел по борьбе с незаконным оборотом оружия. За это время сынишка Шилова и Максаковой немного подрос, Джексон более-менее наладил отношения с Юлией, а Арнаутов с Морозовой всё так же с нежностью глядят друг на друга. Панайотов скрылся в неизвестном направлении и не дает о себе знать, а Марианна, пытаясь хоть как-то наладить новую жизнь, после всех пережитых ужасов, с головой уходит в создание телевизионного ток-шоу «Горькая правда». Именно по приглашению Марианны Шилов должен принять участие в качестве эксперта на съемках сюжета программы. Но этим планам не суждено сбыться. Группа неопознанных людей, ворвалась в студию и расстреляла всех, кто там был - режиссера, операторов, техперсонал, Марианну. Следователи связывают эти убийства с репортажем, над которым работала группа - скандал вокруг генерала Калюжного. Неприятности у генерала идут одна за другой с тех пор, как он перешел дорогу важной «шишке» из Минобороны - Волчанской. И хотя, расследование убийств теперь вне компетенции Шилова, оставаться в стороне он точно не собирается.

Эпизод 1-2 "Кукловоды"
Марианна приглашает Шилова принять участие в телевизионном ток-шоу "Горькая правда", которое она ведет. Но вместо телешоу Шилов видит кровавую бойню: трое киллеров в масках расстреляли всех участников программы, в которой обсуждался обличительный репортаж о бригаде давнего знакомого Шилова - генерала Калюжного. В этой мясорубке погибает и Марианна. На полу студии Шилов находит странную гильзу, каких никогда не видел раньше.

Эпизод 3-4 "Кукловоды"
Шилов находит на телестудии спрятанный пистолет и приходит к выводу, что уцелевший в бойне репортер Морошкин знал о готовящемся расстреле. Использовав его в качестве приманки, Шилов выходит на след киллеров и заказчика. Им оказывается полковник Гудонец. Во время конвоирования он, при странных обстоятельствах, выбрасывается из окна и погибает. Донченко принимает решение о восстановлении Шилова в должности начальника "убойного" отдела вместо Гущенко.
General
Complete name : Mentovskie.voyny-10.(01.seriya.iz.16).2016.HDTVRip.[Kaztorrents].mp4
Format : MPEG-4
Format profile : Base Media
Codec ID : isom
File size : 233 MiB
Duration : 44mn 33s
Overall bit rate mode : Variable
Overall bit rate : 732 Kbps
Encoded date : UTC 2016-10-18 18:05:55
Tagged date : UTC 2016-10-18 18:05:55

Video
ID : 1
Format : AVC
Format/Info : Advanced Video Codec
Format profile : [email protected]
Format settings, CABAC : Yes
Format settings, ReFrames : 9 frames
Codec ID : avc1
Codec ID/Info : Advanced Video Coding
Duration : 44mn 33s
Bit rate : 600 Kbps
Maximum bit rate : 1 840 Kbps
Width : 640 pixels
Height : 360 pixels
Display aspect ratio : 16:9
Frame rate mode : Constant
Frame rate : 25.000 fps
Color space : YUV
Chroma subsampling : 4:2:0
Bit depth : 8 bits
Scan type : Progressive
Bits/(Pixel*Frame) : 0.104
Stream size : 191 MiB (82%)
Title : [email protected]-DEV-rev248-g39d5978-master
Writing library : x264 core 146 r2538 121396c
Encoding settings : cabac=1 / ref=9 / deblock=1:-3:-3 / analyse=0x3:0x113 / me=umh / subme=11 / psy=1 / psy_rd=1.00:0.00 / mixed_ref=1 / me_range=32 / chroma_me=1 / trellis=2 / 8x8dct=1 / cqm=0 / deadzone=21,11 / fast_pskip=0 / chroma_qp_offset=-2 / threads=6 / lookahead_threads=1 / sliced_threads=0 / nr=0 / decimate=1 / interlaced=0 / bluray_compat=0 / constrained_intra=0 / bframes=9 / b_pyramid=2 / b_adapt=2 / b_bias=0 / direct=3 / weightb=1 / open_gop=0 / weightp=2 / keyint=240 / keyint_min=24 / scenecut=40 / intra_refresh=0 / rc_lookahead=40 / rc=2pass / mbtree=0 / bitrate=600 / ratetol=1.0 / qcomp=0.60 / qpmin=0 / qpmax=69 / qpstep=4 / cplxblur=20.0 / qblur=0.5 / vbv_maxrate=14000 / vbv_bufsize=14000 / nal_hrd=none / filler=0 / ip_ratio=1.40 / pb_ratio=1.30 / aq=1:1.00
Encoded date : UTC 2016-10-18 18:05:55
Tagged date : UTC 2016-10-18 18:06:10

Audio
ID : 2
Format : AAC
Format/Info : Advanced Audio Codec
Format profile : LC
Codec ID : 40
Duration : 44mn 33s
Bit rate mode : Variable
Bit rate : 128 Kbps
Maximum bit rate : 164 Kbps
Channel(s) : 2 channels
Channel positions : Front: L R
Sampling rate : 48.0 KHz
Compression mode : Lossy
Stream size : 40.8 MiB (17%)
Encoded date : UTC 2016-10-18 16:13:22
Tagged date : UTC 2016-10-18 18:06:10
x264 [info]: using SAR=1/1
x264 [info]: using cpu capabilities: MMX2 SSE2Fast SSSE3 SSE4.2 AVX
x264 [info]: profile High, level 4.1
x264 [info]: frame I:503 Avg QP:17.34 size: 25702
x264 [info]: frame P:16528 Avg QP:20.34 size: 6209
x264 [info]: frame B:49814 Avg QP:22.24 size: 1706
x264 [info]: consecutive B-frames: 2.3% 4.7% 8.7% 44.9% 11.4% 23.2% 1.8% 1.0% 0.7% 1.3%
x264 [info]: mb I I16..4: 5.7% 69.9% 24.4%
x264 [info]: mb P I16..4: 1.0% 6.2% 1.3% P16..4: 33.6% 34.4% 11.0% 0.0% 0.0% skip:12.5%
x264 [info]: mb B I16..4: 0.2% 0.7% 0.1% B16..8: 28.3% 14.7% 2.2% direct: 3.3% skip:50.5% L0:38.0% L1:47.3% BI:14.7%
x264 [info]: 8x8 transform intra:71.3% inter:65.4%
x264 [info]: direct mvs spatial:98.1% temporal:1.9%
x264 [info]: coded y,uvDC,uvAC intra: 73.3% 75.9% 42.8% inter: 10.8% 12.4% 1.3%
x264 [info]: i16 v,h,dc,p: 19% 22% 3% 56%
x264 [info]: i8 v,h,dc,ddl,ddr,vr,hd,vl,hu: 15% 9% 8% 8% 11% 13% 12% 12% 12%
x264 [info]: i4 v,h,dc,ddl,ddr,vr,hd,vl,hu: 21% 11% 7% 7% 12% 12% 11% 9% 10%
x264 [info]: i8c dc,h,v,p: 30% 29% 24% 16%
x264 [info]: Weighted P-Frames: Y:1.3% UV:0.7%
x264 [info]: ref P L0: 52.4% 12.4% 14.8% 6.1% 4.6% 3.6% 2.9% 1.8% 1.4% 0.1% 0.0%
x264 [info]: ref B L0: 78.1% 11.1% 4.8% 2.3% 1.6% 1.2% 0.7% 0.3%
x264 [info]: ref B L1: 94.6% 5.4%
x264 [info]: kb/s:599.95

x264 [total]: encoded 66845 frames, 25.07 fps, 599.95 kb/s
Технические данные файла:
❖ Качество: HDTVRip (Исходник: HDTV 720p)
❖ Формат: MP4
❖ Видео кодек: H.264
❖ Аудио кодек: AAC-LC
❖ Видео: 640x360 (16:9), 25.000 fps, 600 kbps (0.104 bit/pixel)
❖ Аудио: 48.0 KHz, 2 ch, 128 kbps
Внимание! Раздача ведётся путём добавления новых серий; при каждом добавлении создаётся новый торрент. Чтобы начать докачку новой серии, пользователям необходимо сделать следующее:
(1) остановить скачивание,
(2) удалить старый торрент-файл у себя из клиента (старые серии удалять не надо),
(3) скачать новый торрент-файл из раздачи и запустить его у себя в клиенте вместо старого, при этом указать клиенту путь в старую папку, куда и должно происходить скачивание новых серий.
Ваш клиент при этом должен произвести хеширование (проверку) старой папки (если не производит сам - помогите ему сделать это), и будет докачивать только те серии, которых у вас ещё нет. Старые серии при этом не удаляются, а продолжают раздаваться!
Eсли вы уже удалили старые серии, то предотвратить повторную закачку старых серий можно, отжав галочку в соответсвующих местах при запуске нового торрента. По возможности, желательно не удалять старые серии как можно дольше, чтобы релизёр не столько продолжал раздавать старые серии, а смог сконцентрироваться на новых.


Трекер:  [ 18-Окт-2016 21:30 ]

  

Скачать .torrent

Размер .torrent файла 19 KB


Размер: 467 MB
Хэш (hash) релиза: 04df9d935bcd3ba6a2b60bcec7cc9673fde02eca

Еще никто не оставлял запись к записи скачать торрент [SERIAL] Ментовские войны . Будь первым!

!Обратная связь