Top IMDb | sfida negli abissi | Justified

Скачать через торрент музыку Фронт кровавой блокады Kekkai Sensen бесплатно без регистрации torrent

Статистика раздачи
Размер:  773 MB   |    Зарегистрирован:  1 год 10 месяцев   |    .torrent скачан:  20 раз   |   
Раздают:  1  
   
загрузка...
 
Автор Сообщение

Galfimbul

avatar Galfimbul



<span class="post-font-serif1">Kekkai Sensen</span>
Год выпуска: 2015 г.
Страна: Япония
Аудио кодек: FLAC
Тип рипа: tracks
Продолжительность: 02:04:37
<span class="post-font-sans1">01. Hello, world!
02. Colony</span>
<div class="sp-wrap">
<div class="sp-head folded"><span class="post-font-sans1"><span>audiochecker</span></span></div>
<div class="sp-body">

AUDIOCHECKER v2.0 beta (build 457) - by Dester - [email protected]~~~~~~~~~~~~~~~~~~~~~~~~~~~~~~~~~~-=== DO NOT EDIT THIS FILE! ===-

Path: ...\Kekkai

1 -=- 01. Hello, world!.flac -=- CDDA (100%)2 -=- 02. Colony.flac -=- CDDA (99%)

Summary 99,50% CDDA

224658340
<span class="post-font-sans1">01. Sugar Song and Bitter Step
02. Signal ABC
03. Tokyo Scenario</span>
<div class="sp-wrap">
<div class="sp-head folded"><span class="post-font-sans1"><span>audiochecker</span></span></div>
<div class="sp-body">

AUDIOCHECKER v2.0 beta (build 457) - by Dester - [email protected]~~~~~~~~~~~~~~~~~~~~~~~~~~~~~~~~~~-=== DO NOT EDIT THIS FILE! ===-

Path: ...\Kekkai

1 -=- 01. Sugar Song and Bitter Step.flac -=- CDDA (100%)2 -=- 02. Signal ABC.flac -=- CDDA (100%)3 -=- 03. Tokyo Scenario.flac -=- CDDA (100%)

Summary 100,00% CDDA

154507540
</div>
</div>
<span class="post-font-sans1">01. Theme of Blood Blockade Battlefront
02. Footloose/Run for Cover/Footloose
03. Sidewinder
04. Libra
05. Victim
06. Snap Out
07. Call You Later
08. Presage
09. Oblivión
10. Attack The System
11. Keep On The Sunny Side
12. Look Daggers
13. Toy Blues
14. The Urge
15. Hands On
16. Starbow
17. There Will Be A Day
18. United
19. Fate
20. Traffic Man
21. Under Pressure
22. A Funeral
23. Early Train
24. White Gloves (Reprise)</span>
X Lossless Decoder version 20141129 (148.1)

XLD extraction logfile from 2015-07-14 21:16:03 +0900

岩崎太整 / 『血界戦線』オリジナルサウンドトラック

Used drive : HL-DT-ST DVDRW GX30N (revision RP09)Media type : Pressed CD

Ripper mode : XLD Secure RipperDisable audio cache : OK for the drive with a cache less than 1375KiBMake use of C2 pointers : NORead offset correction : 6Max retry count : 20Gap status : Analyzed, Appended

TOC of the extracted CD Track | Start | Length | Start sector | End sector --------------------------------------------------------- 1 | 00:00:00 | 03:41:21 | 0 | 16595 2 | 03:41:21 | 04:40:06 | 16596 | 37601 3 | 08:21:27 | 02:35:49 | 37602 | 49275 4 | 10:57:01 | 01:15:22 | 49276 | 54922 5 | 12:12:23 | 01:53:14 | 54923 | 63411 6 | 14:05:37 | 02:49:04 | 63412 | 76090 7 | 16:54:41 | 02:08:37 | 76091 | 85727 8 | 19:03:03 | 02:06:23 | 85728 | 95200 9 | 21:09:26 | 02:12:21 | 95201 | 105121 10 | 23:21:47 | 01:42:47 | 105122 | 112818 11 | 25:04:19 | 02:09:72 | 112819 | 122565 12 | 27:14:16 | 01:54:20 | 122566 | 131135 13 | 29:08:36 | 02:10:05 | 131136 | 140890 14 | 31:18:41 | 01:55:04 | 140891 | 149519 15 | 33:13:45 | 02:13:70 | 149520 | 159564 16 | 35:27:40 | 03:58:57 | 159565 | 177471 17 | 39:26:22 | 01:46:64 | 177472 | 185485 18 | 41:13:11 | 01:41:58 | 185486 | 193118 19 | 42:54:69 | 01:49:16 | 193119 | 201309 20 | 44:44:10 | 02:08:13 | 201310 | 210922 21 | 46:52:23 | 02:02:45 | 210923 | 220117 22 | 48:54:68 | 01:07:59 | 220118 | 225201 23 | 50:02:52 | 01:45:56 | 225202 | 233132 24 | 51:48:33 | 02:56:53 | 233133 | 246385

AccurateRip Summary Disc not found in AccurateRip DB.

All Tracks Statistics Read error : 0 Jitter error (maybe fixed) : 0 Retry sector count : 0 Damaged sector count : 0

Track 01 Filename : /Users/Fallious/Music/01. Theme of Blood Blockade Battlefront.flac Pre-gap length : 00:02:00

CRC32 hash : 83B8512A CRC32 hash (skip zero) : 1CD4F684 AccurateRip v1 signature : 4F204043 AccurateRip v2 signature : 5181BEC1 ->Track not present in AccurateRip database. Statistics Read error : 0 Jitter error (maybe fixed) : 0 Retry sector count : 0 Damaged sector count : 0

Track 02 Filename : /Users/Fallious/Music/02. Footloose/Run for Cover/Footloose.flac

CRC32 hash : 6C5FAD87 CRC32 hash (skip zero) : 98773020 AccurateRip v1 signature : 45068D1D AccurateRip v2 signature : 1F37DD2F ->Track not present in AccurateRip database. Statistics Read error : 0 Jitter error (maybe fixed) : 0 Retry sector count : 0 Damaged sector count : 0

Track 03 Filename : /Users/Fallious/Music/03. Sidewinder.flac

CRC32 hash : 426F67AD CRC32 hash (skip zero) : 8F32174F AccurateRip v1 signature : 60300990 AccurateRip v2 signature : C58153AC ->Track not present in AccurateRip database. Statistics Read error : 0 Jitter error (maybe fixed) : 0 Retry sector count : 0 Damaged sector count : 0

Track 04 Filename : /Users/Fallious/Music/04. Libra.flac

CRC32 hash : 45A3E543 CRC32 hash (skip zero) : 9328D8C5 AccurateRip v1 signature : 9369D796 AccurateRip v2 signature : 93F6B612 ->Track not present in AccurateRip database. Statistics Read error : 0 Jitter error (maybe fixed) : 0 Retry sector count : 0 Damaged sector count : 0

Track 05 Filename : /Users/Fallious/Music/05. Victim.flac

CRC32 hash : B93DD939 CRC32 hash (skip zero) : FBDE0C9A AccurateRip v1 signature : 20C83FA2 AccurateRip v2 signature : 922F921D ->Track not present in AccurateRip database. Statistics Read error : 0 Jitter error (maybe fixed) : 0 Retry sector count : 0 Damaged sector count : 0

Track 06 Filename : /Users/Fallious/Music/06. Snap Out.flac

CRC32 hash : 1BE2E07E CRC32 hash (skip zero) : 1665FA9A AccurateRip v1 signature : 4B4287A9 AccurateRip v2 signature : 394D0D14 ->Track not present in AccurateRip database. Statistics Read error : 0 Jitter error (maybe fixed) : 0 Retry sector count : 0 Damaged sector count : 0

Track 07 Filename : /Users/Fallious/Music/07. Call You Later.flac

CRC32 hash : 071D8D3C CRC32 hash (skip zero) : F69058E0 AccurateRip v1 signature : A63EF2A7 AccurateRip v2 signature : 77E51F27 ->Track not present in AccurateRip database. Statistics Read error : 0 Jitter error (maybe fixed) : 0 Retry sector count : 0 Damaged sector count : 0

Track 08 Filename : /Users/Fallious/Music/08. Presage.flac

CRC32 hash : 04FB96D8 CRC32 hash (skip zero) : 1B768D5A AccurateRip v1 signature : 2BD94534 AccurateRip v2 signature : B956308A ->Track not present in AccurateRip database. Statistics Read error : 0 Jitter error (maybe fixed) : 0 Retry sector count : 0 Damaged sector count : 0

Track 09 Filename : /Users/Fallious/Music/09. Oblivión.flac

CRC32 hash : D9A88A72 CRC32 hash (skip zero) : 3BDD77A7 AccurateRip v1 signature : D81EA576 AccurateRip v2 signature : ECCBC37F ->Track not present in AccurateRip database. Statistics Read error : 0 Jitter error (maybe fixed) : 0 Retry sector count : 0 Damaged sector count : 0

Track 10 Filename : /Users/Fallious/Music/10. Attack The System.flac

CRC32 hash : 065AFADD CRC32 hash (skip zero) : C5E763F5 AccurateRip v1 signature : 49993413 AccurateRip v2 signature : 2B1CC050 ->Track not present in AccurateRip database. Statistics Read error : 0 Jitter error (maybe fixed) : 0 Retry sector count : 0 Damaged sector count : 0

Track 11 Filename : /Users/Fallious/Music/11. Keep On The Sunny Side.flac

CRC32 hash : 9DB6BED5 CRC32 hash (skip zero) : 5DA5F34A AccurateRip v1 signature : A5C93E24 AccurateRip v2 signature : A97D6B12 ->Track not present in AccurateRip database. Statistics Read error : 0 Jitter error (maybe fixed) : 0 Retry sector count : 0 Damaged sector count : 0

Track 12 Filename : /Users/Fallious/Music/12. Look Daggers.flac

CRC32 hash : B55F914C CRC32 hash (skip zero) : 8AD40BEA AccurateRip v1 signature : DA724221 AccurateRip v2 signature : 4E967A43 ->Track not present in AccurateRip database. Statistics Read error : 0 Jitter error (maybe fixed) : 0 Retry sector count : 0 Damaged sector count : 0

Track 13 Filename : /Users/Fallious/Music/13. Toy Blues.flac

CRC32 hash : 47BF06FB CRC32 hash (skip zero) : CE2BB071 AccurateRip v1 signature : EF6E61CA AccurateRip v2 signature : 0FE41574 ->Track not present in AccurateRip database. Statistics Read error : 0 Jitter error (maybe fixed) : 0 Retry sector count : 0 Damaged sector count : 0

Track 14 Filename : /Users/Fallious/Music/14. Urge.flac

CRC32 hash : CF8C0C9B CRC32 hash (skip zero) : CA165A96 AccurateRip v1 signature : 89346BB2 AccurateRip v2 signature : 6F4094BB ->Track not present in AccurateRip database. Statistics Read error : 0 Jitter error (maybe fixed) : 0 Retry sector count : 0 Damaged sector count : 0

Track 15 Filename : /Users/Fallious/Music/15. Hands On.flac

CRC32 hash : A3A4A300 CRC32 hash (skip zero) : 03267F32 AccurateRip v1 signature : 49357E89 AccurateRip v2 signature : 6C946282 ->Track not present in AccurateRip database. Statistics Read error : 0 Jitter error (maybe fixed) : 0 Retry sector count : 0 Damaged sector count : 0

Track 16 Filename : /Users/Fallious/Music/16. Starbow.flac

CRC32 hash : 2BB0458C CRC32 hash (skip zero) : 493E400E AccurateRip v1 signature : AE76E42A AccurateRip v2 signature : A42AE649 ->Track not present in AccurateRip database. Statistics Read error : 0 Jitter error (maybe fixed) : 0 Retry sector count : 0 Damaged sector count : 0

Track 17 Filename : /Users/Fallious/Music/17. There Will Be A Day.flac

CRC32 hash : E03B2CC3 CRC32 hash (skip zero) : CA6BDEFE AccurateRip v1 signature : E3280E1C AccurateRip v2 signature : 776DE43A ->Track not present in AccurateRip database. Statistics Read error : 0 Jitter error (maybe fixed) : 0 Retry sector count : 0 Damaged sector count : 0

Track 18 Filename : /Users/Fallious/Music/18. United.flac

CRC32 hash : E5667CBC CRC32 hash (skip zero) : 291A0884 AccurateRip v1 signature : 3134A9A5 AccurateRip v2 signature : 5FE922B0 ->Track not present in AccurateRip database. Statistics Read error : 0 Jitter error (maybe fixed) : 0 Retry sector count : 0 Damaged sector count : 0

Track 19 Filename : /Users/Fallious/Music/19. Fate.flac

CRC32 hash : B4359491 CRC32 hash (skip zero) : ADA3DDC9 AccurateRip v1 signature : C8D9DE71 AccurateRip v2 signature : D0454839 ->Track not present in AccurateRip database. Statistics Read error : 0 Jitter error (maybe fixed) : 0 Retry sector count : 0 Damaged sector count : 0

Track 20 Filename : /Users/Fallious/Music/20. Traffic Man.flac

CRC32 hash : 57600BD6 CRC32 hash (skip zero) : 45D2C99F AccurateRip v1 signature : 771522CA AccurateRip v2 signature : C23967F2 ->Track not present in AccurateRip database. Statistics Read error : 0 Jitter error (maybe fixed) : 0 Retry sector count : 0 Damaged sector count : 0

Track 21 Filename : /Users/Fallious/Music/21. Under Pressure.flac

CRC32 hash : AF19923B CRC32 hash (skip zero) : 603CAF6A AccurateRip v1 signature : 3450D7BE AccurateRip v2 signature : 189AF04C ->Track not present in AccurateRip database. Statistics Read error : 0 Jitter error (maybe fixed) : 0 Retry sector count : 0 Damaged sector count : 0

Track 22 Filename : /Users/Fallious/Music/22. A Funeral.flac

CRC32 hash : 2DED299E CRC32 hash (skip zero) : 3539170E AccurateRip v1 signature : 44C77E57 AccurateRip v2 signature : 441C0017 ->Track not present in AccurateRip database. Statistics Read error : 0 Jitter error (maybe fixed) : 0 Retry sector count : 0 Damaged sector count : 0

Track 23 Filename : /Users/Fallious/Music/23. Early Train.flac

CRC32 hash : F1654598 CRC32 hash (skip zero) : 2B247E37 AccurateRip v1 signature : 51039609 AccurateRip v2 signature : 069565B2 ->Track not present in AccurateRip database. Statistics Read error : 0 Jitter error (maybe fixed) : 0 Retry sector count : 0 Damaged sector count : 0

Track 24 Filename : /Users/Fallious/Music/24. White Gloves (Reprise).flac

CRC32 hash : 3DEE848A CRC32 hash (skip zero) : B90E2CD2 AccurateRip v1 signature : E751CA05 AccurateRip v2 signature : 9F9A15ED ->Track not present in AccurateRip database. Statistics Read error : 0 Jitter error (maybe fixed) : 0 Retry sector count : 0 Damaged sector count : 0

No errors occurred

End of status report
<span class="post-font-sans1">01. Catch Me If You Can
02. A Way Out
03. World Goes Round
04. On My Own
05. In The City
06. The Land of Nod
07. Dust
08. Just A Game
09. BCCGS
10. It's Magic
11. At The Gates
12. Epi fèmen dife a
13. Epigraph
14. World Goes Round (Reprise)
15. White Gloves
16. Hello,world! (TV size version)</span>
X Lossless Decoder version 20141129 (148.1)

XLD extraction logfile from 2015-07-14 21:43:43 +0900

様々なアーティスト / 『血界戦線』オリジナルサウンドトラック

Used drive : HL-DT-ST DVDRW GX30N (revision RP09)Media type : Pressed CD

Ripper mode : XLD Secure RipperDisable audio cache : OK for the drive with a cache less than 1375KiBMake use of C2 pointers : NORead offset correction : 6Max retry count : 20Gap status : Analyzed, Appended

TOC of the extracted CD Track | Start | Length | Start sector | End sector --------------------------------------------------------- 1 | 00:00:00 | 03:26:24 | 0 | 15473 2 | 03:26:24 | 03:51:42 | 15474 | 32840 3 | 07:17:66 | 03:18:61 | 32841 | 47751 4 | 10:36:52 | 04:31:44 | 47752 | 68120 5 | 15:08:21 | 01:59:29 | 68121 | 77074 6 | 17:07:50 | 04:57:45 | 77075 | 99394 7 | 22:05:20 | 03:54:48 | 99395 | 116992 8 | 25:59:68 | 03:55:28 | 116993 | 134645 9 | 29:55:21 | 02:08:00 | 134646 | 144245 10 | 32:03:21 | 03:05:50 | 144246 | 158170 11 | 35:08:71 | 02:00:63 | 158171 | 167233 12 | 37:09:59 | 01:59:36 | 167234 | 176194 13 | 39:09:20 | 02:55:49 | 176195 | 189368 14 | 42:04:69 | 02:13:14 | 189369 | 199357 15 | 44:18:08 | 02:43:41 | 199358 | 211623 16 | 47:01:49 | 01:31:01 | 211624 | 218449

AccurateRip Summary Disc not found in AccurateRip DB.

All Tracks Statistics Read error : 0 Jitter error (maybe fixed) : 0 Retry sector count : 0 Damaged sector count : 0

Track 01 Filename : /Users/Fallious/Music/01. Catch Me If You Can.flac Pre-gap length : 00:02:00

CRC32 hash : D786D24E CRC32 hash (skip zero) : C0F27C02 AccurateRip v1 signature : B5AE4A3E AccurateRip v2 signature : 3C177F99 ->Track not present in AccurateRip database. Statistics Read error : 0 Jitter error (maybe fixed) : 0 Retry sector count : 0 Damaged sector count : 0

Track 02 Filename : /Users/Fallious/Music/02. A Way Out.flac

CRC32 hash : 6AE71D19 CRC32 hash (skip zero) : F432A606 AccurateRip v1 signature : D4C13BBC AccurateRip v2 signature : B3C02EED ->Track not present in AccurateRip database. Statistics Read error : 0 Jitter error (maybe fixed) : 0 Retry sector count : 0 Damaged sector count : 0

Track 03 Filename : /Users/Fallious/Music/03. World Goes Round.flac

CRC32 hash : A19CCD6F CRC32 hash (skip zero) : 4A9C351C AccurateRip v1 signature : FD4B301E AccurateRip v2 signature : DA20B1E9 ->Track not present in AccurateRip database. Statistics Read error : 0 Jitter error (maybe fixed) : 0 Retry sector count : 0 Damaged sector count : 0

Track 04 Filename : /Users/Fallious/Music/04. On My Own.flac

CRC32 hash : 6F3215D7 CRC32 hash (skip zero) : 83A7FBC3 AccurateRip v1 signature : 4B618F88 AccurateRip v2 signature : A48A3BC4 ->Track not present in AccurateRip database. Statistics Read error : 0 Jitter error (maybe fixed) : 0 Retry sector count : 0 Damaged sector count : 0

Track 05 Filename : /Users/Fallious/Music/05. In The City.flac

CRC32 hash : 3DFD7410 CRC32 hash (skip zero) : 0A7FE034 AccurateRip v1 signature : 8F5150A8 AccurateRip v2 signature : AB5809D5 ->Track not present in AccurateRip database. Statistics Read error : 0 Jitter error (maybe fixed) : 0 Retry sector count : 0 Damaged sector count : 0

Track 06 Filename : /Users/Fallious/Music/06. The Land Of Nod.flac

CRC32 hash : 27ABBE91 CRC32 hash (skip zero) : 3677D488 AccurateRip v1 signature : DBFF9ADD AccurateRip v2 signature : 149EAA13 ->Track not present in AccurateRip database. Statistics Read error : 0 Jitter error (maybe fixed) : 0 Retry sector count : 0 Damaged sector count : 0

Track 07 Filename : /Users/Fallious/Music/07. Dust.flac

CRC32 hash : 1D229A57 CRC32 hash (skip zero) : 675080FC AccurateRip v1 signature : D5F29122 AccurateRip v2 signature : FD3F9421 ->Track not present in AccurateRip database. Statistics Read error : 0 Jitter error (maybe fixed) : 0 Retry sector count : 0 Damaged sector count : 0

Track 08 Filename : /Users/Fallious/Music/08. Just A Game.flac

CRC32 hash : F7101C8F CRC32 hash (skip zero) : 884B4FDA AccurateRip v1 signature : 012CB95B AccurateRip v2 signature : 9E54A4BB ->Track not present in AccurateRip database. Statistics Read error : 0 Jitter error (maybe fixed) : 0 Retry sector count : 0 Damaged sector count : 0

Track 09 Filename : /Users/Fallious/Music/09. BCCGS.flac

CRC32 hash : A64314C2 CRC32 hash (skip zero) : 3B20A682 AccurateRip v1 signature : FCDBF099 AccurateRip v2 signature : CB5ECE71 ->Track not present in AccurateRip database. Statistics Read error : 0 Jitter error (maybe fixed) : 0 Retry sector count : 0 Damaged sector count : 0

Track 10 Filename : /Users/Fallious/Music/10. It's Magic.flac

CRC32 hash : 3CA7A2EF CRC32 hash (skip zero) : 9A57546F AccurateRip v1 signature : 08955851 AccurateRip v2 signature : FE1E4EDF ->Track not present in AccurateRip database. Statistics Read error : 0 Jitter error (maybe fixed) : 0 Retry sector count : 0 Damaged sector count : 0

Track 11 Filename : /Users/Fallious/Music/11. At The Gates.flac

CRC32 hash : 8209F9DA CRC32 hash (skip zero) : 3BFBF822 AccurateRip v1 signature : 69679C4A AccurateRip v2 signature : D5EF0C21 ->Track not present in AccurateRip database. Statistics Read error : 0 Jitter error (maybe fixed) : 0 Retry sector count : 0 Damaged sector count : 0

Track 12 Filename : /Users/Fallious/Music/12. Epi fèmen dife a.flac

CRC32 hash : 5176A75D CRC32 hash (skip zero) : 25892959 AccurateRip v1 signature : F8BECB98 AccurateRip v2 signature : 48F7B1D8 ->Track not present in AccurateRip database. Statistics Read error : 0 Jitter error (maybe fixed) : 0 Retry sector count : 0 Damaged sector count : 0

Track 13 Filename : /Users/Fallious/Music/13. Epigraph.flac

CRC32 hash : F0FAEAA7 CRC32 hash (skip zero) : C982626D AccurateRip v1 signature : 4BDD74E7 AccurateRip v2 signature : FADB33DD ->Track not present in AccurateRip database. Statistics Read error : 0 Jitter error (maybe fixed) : 0 Retry sector count : 0 Damaged sector count : 0

Track 14 Filename : /Users/Fallious/Music/14. World Goes Round (Reprise).flac

CRC32 hash : 98702E3F CRC32 hash (skip zero) : 6CC61A85 AccurateRip v1 signature : 497BF74D AccurateRip v2 signature : 96503819 ->Track not present in AccurateRip database. Statistics Read error : 0 Jitter error (maybe fixed) : 0 Retry sector count : 0 Damaged sector count : 0

Track 15 Filename : /Users/Fallious/Music/15. White Gloves.flac

CRC32 hash : E33FA7FC CRC32 hash (skip zero) : 5D4898A2 AccurateRip v1 signature : D581E629 AccurateRip v2 signature : 3624290E ->Track not present in AccurateRip database. Statistics Read error : 0 Jitter error (maybe fixed) : 0 Retry sector count : 0 Damaged sector count : 0

Track 16 Filename : /Users/Fallious/Music/16. Hello,world! (TV size version).flac

CRC32 hash : 99586956 CRC32 hash (skip zero) : 2F0FA0EA AccurateRip v1 signature : 6DE423AF AccurateRip v2 signature : A2EBE42F ->Track not present in AccurateRip database. Statistics Read error : 0 Jitter error (maybe fixed) : 0 Retry sector count : 0 Damaged sector count : 0

No errors occurred

End of status report
</div>
</div>

Трекер:  [ 17-Окт-2016 17:30 ]

  

Скачать .torrent

Размер .torrent файла 20 KB


Размер: 773 MB
Хэш (hash) релиза: d5e56d7f1c5638e87a0d258d6258c226ba523fa3

Торренты, похожие на Фронт кровавой блокады Kekkai Sensen скачать торрент

Форум Название Автор Размер S L Добавлен
Саундтреки к аниме (mp3) ·· (Score / Soundtrack) Фронт кровавой блокады / Стражи Барьера / Kekkai Sensen / Kekkai Sensen & Beyond (TV-1, TV-2) (Kekkai Sensen OST) (V.A.) - 2015 - 2017, (8 CD) MP3, 320 kbps Galfimbul 12197618291.14 GB 0 0 1514540538

12:42

29-Дек-17

Еще никто не оставлял запись к записи скачать торрент Фронт кровавой блокады Kekkai Sensen . Будь первым!

!Обратная связь