Bookmark This Torrent | El detective de Arthur Hailey | Largo Winch - Tome 10 - ... et mourir

Скачать через торрент [SERIAL] Легенды завтрашнего дня DCs Legends of Tomorrow бесплатно русская версия torrent активатор

Статистика раздачи
Размер:  223 MB   |    Зарегистрирован:  1 год 9 месяцев   |    .torrent скачан:  19 раз   |   
Раздают:  1  
   
загрузка...
 
Автор Сообщение

Galfimbul

avatar Galfimbul


<span class="post-font-impact">✦ Легенды завтрашнего дня / DC's Legends of Tomorrow ✦</span>
Информация о фильме:
❖ Страна: США
❖ Производство: Berlanti Productions, Bonanza Productions, DC Entertainment, Warner Bros. Television
❖ Год выпуска: 2016
❖ Жанр: фантастика, боевик, драма, приключения
❖ Режиссер: Дермотт Даунс, Грегори Смит, Дэвид Геддес
❖ В ролях: Виктор Гарбер, Брэндон Рут, Артур Дарвилл, Кейти Лотц, Франц Драмех, Эми Пембертон, Доминик Пёрселл, Сиара Рене, Венворт Миллер, Мэтт Летчер

❖ Перевод: Профессиональный (многоголосый, закадровый) [LostFilm]
❖ Продолжительность: По ~00:42:00

❖ Релиз от:
❖ Автор рипа: ProT1gR

Описание фильма:
Когда одних героев недостаточно, миру необходимы легенды. Умея видеть будущее, Рип Хантер отчаянно пытается предотвратить определённые события при помощи путешествий во времени. Сейчас перед ним стоит задача составить группу из героев и злодеев и заставить её бороться против неудержимой угрозы. Получится ли у него?



Эпизод 1. Вне времени (Out of Time)
General
Complete name : DCs.Legends.of.Tomorrow.[S02E01].WEB-DLRip.rus.LostFilm.[Kaztorrents].mp4
Format : MPEG-4
Format profile : Base Media
Codec ID : isom
File size : 223 MiB
Duration : 42mn 32s
Overall bit rate mode : Variable
Overall bit rate : 732 Kbps
Encoded date : UTC 2016-10-17 13:09:57
Tagged date : UTC 2016-10-17 13:09:57

Video
ID : 1
Format : AVC
Format/Info : Advanced Video Codec
Format profile : [email protected]
Format settings, CABAC : Yes
Format settings, ReFrames : 9 frames
Codec ID : avc1
Codec ID/Info : Advanced Video Coding
Duration : 42mn 32s
Bit rate : 600 Kbps
Maximum bit rate : 1 725 Kbps
Width : 640 pixels
Height : 360 pixels
Display aspect ratio : 16:9
Frame rate mode : Constant
Frame rate : 23.976 fps
Color space : YUV
Chroma subsampling : 4:2:0
Bit depth : 8 bits
Scan type : Progressive
Bits/(Pixel*Frame) : 0.109
Stream size : 182 MiB (82%)
Title : [email protected]-DEV-rev248-g39d5978-master
Writing library : x264 core 146 r2538 121396c
Encoding settings : cabac=1 / ref=9 / deblock=1:-3:-3 / analyse=0x3:0x113 / me=umh / subme=11 / psy=1 / psy_rd=1.00:0.00 / mixed_ref=1 / me_range=32 / chroma_me=1 / trellis=2 / 8x8dct=1 / cqm=0 / deadzone=21,11 / fast_pskip=0 / chroma_qp_offset=-2 / threads=6 / lookahead_threads=1 / sliced_threads=0 / nr=0 / decimate=1 / interlaced=0 / bluray_compat=0 / constrained_intra=0 / bframes=9 / b_pyramid=2 / b_adapt=2 / b_bias=0 / direct=3 / weightb=1 / open_gop=0 / weightp=2 / keyint=240 / keyint_min=23 / scenecut=40 / intra_refresh=0 / rc_lookahead=40 / rc=2pass / mbtree=0 / bitrate=600 / ratetol=1.0 / qcomp=0.60 / qpmin=0 / qpmax=69 / qpstep=4 / cplxblur=20.0 / qblur=0.5 / vbv_maxrate=14000 / vbv_bufsize=14000 / nal_hrd=none / filler=0 / ip_ratio=1.40 / pb_ratio=1.30 / aq=1:1.00
Encoded date : UTC 2016-10-17 13:09:57
Tagged date : UTC 2016-10-17 13:10:07

Audio
ID : 2
Format : AAC
Format/Info : Advanced Audio Codec
Format profile : LC
Codec ID : 40
Duration : 42mn 32s
Bit rate mode : Variable
Bit rate : 128 Kbps
Maximum bit rate : 149 Kbps
Channel(s) : 2 channels
Channel positions : Front: L R
Sampling rate : 48.0 KHz
Compression mode : Lossy
Stream size : 38.9 MiB (17%)
Encoded date : UTC 2016-10-17 11:33:52
Tagged date : UTC 2016-10-17 13:10:07
x264 [info]: frame I:681 Avg QP:20.07 size: 22109
x264 [info]: frame P:17107 Avg QP:23.91 size: 5904
x264 [info]: frame B:43412 Avg QP:26.08 size: 1735
x264 [total]: encoded 61200 frames, 27.62 fps, 599.79 kb/s
Технические данные файла:
❖ Качество: WEB-DLRip (Исходник: WEB-DL 720p)
❖ Формат: MP4
❖ Видео кодек: H.264
❖ Аудио кодек: AAC-LC
❖ Видео: 640x360 (16:9), 23.976 fps, 600 kbps (0.109 bit/pixel)
❖ Аудио: 48.0 KHz, 2 ch, 128 kbps
Внимание! Раздача ведётся путём добавления новых серий; при каждом добавлении создаётся новый торрент. Чтобы начать докачку новой серии, пользователям необходимо сделать следующее:
(1) остановить скачивание,
(2) удалить старый торрент-файл у себя из клиента (старые серии удалять не надо),
(3) скачать новый торрент-файл из раздачи и запустить его у себя в клиенте вместо старого, при этом указать клиенту путь в старую папку, куда и должно происходить скачивание новых серий.
Ваш клиент при этом должен произвести хеширование (проверку) старой папки (если не производит сам - помогите ему сделать это), и будет докачивать только те серии, которых у вас ещё нет. Старые серии при этом не удаляются, а продолжают раздаваться!
Eсли вы уже удалили старые серии, то предотвратить повторную закачку старых серий можно, отжав галочку в соответсвующих местах при запуске нового торрента. По возможности, желательно не удалять старые серии как можно дольше, чтобы релизёр не столько продолжал раздавать старые серии, а смог сконцентрироваться на новых.


Трекер:  [ 17-Окт-2016 17:30 ]

  

Скачать .torrent

Размер .torrent файла 18 KB


Размер: 223 MB
Хэш (hash) релиза: 2d21f8806a9d8c3384e313f2afbc7e7eb74aa397

Еще никто не оставлял запись к записи скачать торрент [SERIAL] Легенды завтрашнего дня DCs Legends of Tomorrow . Будь первым!

!Обратная связь