Télécharger | How To Watch | Paramej Noiam

Скачать через торрент Весь этот джем Фильм бесплатно в хорошем качестве torrent

Скачивайте на UnionPeer.org фильмы через торрент без регистрации. Новинки кино в хорошем качестве через торрент. На UnionPeer.org можно скачать через торрент фильмы 2014 и 2015 годов. Самые новые фильмы.

Скачать торрент Весь этот джем бесплатно через .torrent фильм мультфильм сериал

Статистика раздачи
Размер:  1.36 GB   |    Зарегистрирован:  1 год 9 месяцев   |    .torrent скачан:  79 раз   |   
Раздают:  1  
   
загрузка...
 
Автор Сообщение

Galfimbul

avatar Galfimbul


Весь этот джем

Жанр: Комедия, мелодрама
Год выпуска: 2015
Продолжительность: 01:32:12

Режиссёр: Александр Андраникян

В ролях: Светлана Ходченкова, Мартин Дингл Уолл, Юлия Дзуцева, Василий Михайлов, Леонид Куравлёв, Алла Малкова, Юлия Ауг, Кристина Бабушкина, Петар Зекавица, Милица Зекавица

Описание: Главные герои - популярный актер из Соединенных Штатов Америки и русская девушка, озадачены поисками, каждый своим. Девушка, чье сердце разбито на тысячи кусочков от предательства любимого человека, хочет избавить себя от этих мук, и ищет утешения. Американский актер репетирует чеховскую пьесу, в которой ему посчастливилось исполнить главную роль. Во время этих репетиций, и в перерывах, он разыскивает рецепт варенья из крыжовника, очень старинный и важный для него рецепт. Маленькая деревня становится отправной точкой в отношениях этих людей, связанных одной целью – поиском. Деревенская жизнь приносит героям фильма множество перипетий и забавных увлекательных ситуаций и не только. Девушка и актер не могут не попадать в эти ситуации, в которых и пробуждается настоящая любовь...

Бюджет фильма : -- 1,500,000 $

Сэмпл: http://multi-up.com/1123246

Качество видео: WEB-DLRip (Исходник Jam.O.2015.720p.WEB-DL.mkv)
Формат видео: AVI

Видео: XviD, 720x304, (2,35:1), 24,000 fps, 1749 Кбит/с
Аудио: Русский (АС3, 6 ch (Front: L C R, Side: L R, LFE), 48,0 KHz, 384 Kbps)
Общее
Полное имя : F:\Видеофильмы\В и д е о\Весь этот джем (комедия, мелодрама 2015 год).avi
Формат : AVI
Формат/Информация : Audio Video Interleave
Размер файла : 1,36 Гбайт
Продолжительность : 1 ч. 31 м.
Общий поток : 2142 Кбит/сек
Программа кодирования : VirtualDubMod 1.5.10.3 | www.virtualdub-fr.org || (build 2550/release)
Библиотека кодирования : VirtualDubMod build 2550/release

Видео
Идентификатор : 0
Формат : MPEG-4 Visual
Профиль формата : Advanced [email protected]
Параметр BVOP формата : 2
Параметр QPel формата : Нет
Параметр GMC формата : Без точки перехода
Параметр матрицы формата : Выборочная
Идентификатор кодека : XVID
Идентификатор кодека/Подсказка : XviD
Продолжительность : 1 ч. 31 м.
Битрейт : 1749 Кбит/сек
Ширина : 720 пикселей
Высота : 304 пикселя
Соотношение сторон : 2,35:1
Частота кадров : 24,000 кадра/сек
Цветовое пространство : YUV
Субдискретизация насыщенности : 4:2:0
Битовая глубина : 8 бит
Тип развёртки : Прогрессивная
Метод сжатия : С потерями
Бит/(Пиксели*Кадры) : 0.333
Размер потока : 1,11 Гбайт (82%)
Библиотека кодирования : XviD 1.2.1 (UTC 2008-12-04)

Аудио
Идентификатор : 1
Формат : AC-3
Формат/Информация : Audio Coding 3
Расширение режима : CM (complete main)
Параметр Endianness формата : Big
Идентификатор кодека : 2000
Продолжительность : 1 ч. 31 м.
Вид битрейта : Постоянный
Битрейт : 384 Кбит/сек
Каналы : 6 каналов
Расположение каналов : Front: L C R, Side: L R, LFE
Частота : 48,0 КГц
Частота кадров : 31,250 кадров/сек (1536 spf)
Метод сжатия : С потерями
Размер потока : 250 Мбайт (18%)
Выравнивание : Разделение по промежуткам
Продолжительность промежутка : 42 мс. (1,00 видеокадр)
Время предзагрузки промежутка : 500 мс.


Трекер:  [ 17-Окт-2016 16:00 ]

  

Скачать .torrent

Размер .torrent файла 14 KB


Размер: 1.36 GB
Хэш (hash) релиза: 58fce8415b8c5819c4e3c873b9419380223448b4
Подписка на обновления:

Еще никто не оставлял запись к записи скачать торрент Весь этот джем . Будь первым!

!Обратная связь