Физрук [S03] (2016) SATRip | 深宫遗梦之美人赦 | TechSmith SnagIt 2018.2.1 Build 1590 (2018) PC | RePack by KpoJIuK

Скачать через торрент [MULT] Инспектор Уиллоби Inspector Willoughby бесплатно русская версия torrent активатор

Статистика раздачи
Размер:  580 MB   |    Зарегистрирован:  1 год 9 месяцев   |    .torrent скачан:  25 раз   |   
Раздают:  1  
   
загрузка...
 
Автор Сообщение

Galfimbul

avatar Galfimbul


<span class="post-font-serif1">Инспектор Уиллоби / Inspector Willoughby</span>
Год выпуска: 1958 - 1965
Страна: США
Жанр: мультфильм, комедия
Продолжительность: ~00:06:00 серия
Перевод: Профессиональный (дублированный) Selena Int., по заказу ОРТ
Субтитры: русские, вшитые в видеоряд (на серию 01)
Режиссер: Пол Дж. Смит / Paul J. Smith
Описание: Мультфильм рассказывает о похождениях флегматичного инспектора Уиллоби, который легко раскрывает все преступления и ловит преступников.
Качество: DVDRip
Формат: MP4
Видео: MPEG-4 Visual, 480x360 (4:3), 1080 Kbps, 23,976 fps
Аудио: Русский, AAC, 2 ch, 128 Kbps, 48 KHz
01. Hunger Strife - переведена субтитрами
02. Rough and Tumbleweed
03. Eggnapper
04. Mississippi Slow Boat
05. Case of the Red-Eyed Ruby
06. Phoney Express
07. Hyde and Sneak
08. Coming Out Party
09. Case of Cold Storage Yegg
10. Hi-Seas Hi-Jacker
11. The Case of the Maltese Chicken - отсутствует в раздаче
12. The Case of the Elephant's Trunk
Полное имя : D:\Раздачи\Inspector Willoughby 480x\01 - Hunger Strife [DVDRip].mp4Формат : MPEG-4Профиль формата : Base Media / Version 2Идентификатор кодека : mp42 (isom/mp42/3gp5)Размер файла : 53,4 МбайтПродолжительность : 6 м. 11 с.Режим общего битрейта : ПеременныйОбщий поток : 1207 Кбит/секДата кодирования : UTC 2016-10-06 04:36:52Дата пометки : UTC 2016-10-06 04:36:52

ВидеоИдентификатор : 201Формат : MPEG-4 VisualПрофиль формата : [email protected]Параметр BVOP формата : НетПараметр QPel формата : НетПараметр GMC формата : Без точки переходаПараметр матрицы формата : Default (H.263)Идентификатор кодека : 20Продолжительность : 6 м. 11 с.Вид битрейта : ПеременныйБитрейт : 1079 Кбит/секМаксимальный битрейт : 1920 Кбит/секШирина : 480 пикселейВысота : 360 пикселейСоотношение сторон : 4:3Режим частоты кадров : ПостоянныйЧастота кадров : 23,976 (24000/1001) кадра/секЦветовое пространство : YUVСубдискретизация насыщенности : 4:2:0Битовая глубина : 8 битТип развёртки : ПрогрессивнаяМетод сжатия : С потерямиБит/(Пиксели*Кадры) : 0.261Размер потока : 47,8 Мбайт (89%)Библиотека кодирования : Lavc52.30.2Дата кодирования : UTC 2016-10-06 04:36:52Дата пометки : UTC 2016-10-06 04:36:53

АудиоИдентификатор : 101Формат : AACФормат/Информация : Advanced Audio CodecПрофиль формата : LCИдентификатор кодека : 40Продолжительность : 6 м. 11 с.Вид битрейта : ПеременныйБитрейт : 125 Кбит/секМаксимальный битрейт : 161 Кбит/секКаналы : 2 каналаРасположение каналов : Front: L RЧастота : 48,0 КГцЧастота кадров : 46,875 кадров/сек (1024 spf)Метод сжатия : С потерямиРазмер потока : 5,55 Мбайт (10%)Дата кодирования : UTC 2016-10-06 04:36:53Дата пометки : UTC 2016-10-06 04:36:53

Прочее #1Идентификатор : 2Тип : Object descriptionФормат : SystemИдентификатор кодека : 1Продолжительность : 1 с. 0 мс.Дата кодирования : UTC 2016-10-06 04:36:53Дата пометки : UTC 2016-10-06 04:36:53

Прочее #2Идентификатор : 1Тип : Scene descriptionФормат : System CoreИдентификатор кодека : 2Продолжительность : 1 с. 0 мс.Дата кодирования : UTC 2016-10-06 04:36:53Дата пометки : UTC 2016-10-06 04:36:53


Трекер:  [ 07-Окт-2016 11:00 ]

  

Скачать .torrent

Размер .torrent файла 12 KB


Размер: 580 MB
Хэш (hash) релиза: d651327ec9de48fc39bc56eb38af54c45a4c8e67

Еще никто не оставлял запись к записи скачать торрент [MULT] Инспектор Уиллоби Inspector Willoughby . Будь первым!

!Обратная связь