Télécharger Films Qualité DVDRIP--BDRIP--BRRIP | Scorpion | Watch now

Скачать через торрент Жила-была одна баба Серии: 1-5 из 5 Фильм бесплатно в хорошем качестве torrent

Скачивайте на UnionPeer.org фильмы через торрент без регистрации. Новинки кино в хорошем качестве через торрент. На UnionPeer.org можно скачать через торрент фильмы 2014 и 2015 годов. Самые новые фильмы.

Скачать торрент Жила-была одна баба Серии: 1-5 из 5 бесплатно через .torrent фильм мультфильм сериал

Статистика раздачи
Размер:  3.15 GB   |    Зарегистрирован:  1 год 8 месяцев   |    .torrent скачан:  145 раз   |   
Раздают:  1  
   
загрузка...
 
Автор Сообщение

Galfimbul

avatar Galfimbul


Жила-была одна баба

Год выпуска: 2014
Производство: Россия, Рекун-синема
Жанр: Драма, история
Продолжительность: 00:52:00
Субтитры: Нет

Режиссёр: Андрей Смирнов

В ролях: Дарья Екамасова, Владислав Абашин, Максим Аверин, Алексей Серебряков, Алексей Шевченков, Роман Мадянов, Евдокия Германова, Агриппина Стеклова, Андрей Курносов, Александр Колодин

Описание: История частной жизни одной женщины и четверых ее мужчин. Главная героиня — неграмотная крестьянка, и действие фильма начинается с ее свадьбы в 1909 году, когда девушку из нищей семьи взяли в богатую, а кончается в 1921 году Антоновским восстанием.
Релиз группа:
<a href="tracker.php?f=9&nm=%D0%96%D0%B8%D0%BB%D0%B0%20%D0%B1%D1%8B%D0%BB%D0%B0%20%D0%BE%D0%B4%D0%BD%D0%B0%20%D0%B1%D0%B0%D0%B1%D0%B0" class="postLink">Все раздачи сериала</a> / Сэмпл
Качество: WEBRip
Формат: AVI
Видео кодек: XviD
Аудио кодек: AC3
Видео: 720x304 (2.35:1), 25.000 fps, XviD build 73, 1538 Kbps, 0.28 bits/pixel
Аудио: 48 kHz, AC3 Dolby Digital, 2 ch, 192 Kbps

General
Complete name : Downloads\Zyla.byla.odna.baba.2014.WEB-DLRip.Files-x
Format : AVI
Format/Info : Audio Video Interleave
File size : 646 MiB
Duration : 51mn 53s
Overall bit rate : 1 740 Kbps
Writing application : VirtualDubMod 1.5.10.3 | www.virtualdub-fr.org || (build 2550/release)
Writing library : VirtualDubMod build 2550/release
Video #0
ID : 0
Format : MPEG-4 Visual
Format profile : Advanced [email protected]
Format settings, BVOP : 1
Format settings, QPel : No
Format settings, GMC : No warppoints
Format settings, Matrix : Custom
Codec ID : XVID
Codec ID/Hint : XviD
Duration : 51mn 53s
Bit rate : 1 538 Kbps
Width : 720 pixels
Height : 304 pixels
Display aspect ratio : 2.35:1
Frame rate : 25.000 fps
Color space : YUV
Chroma subsampling : 4:2:0
Bit depth : 8 bits
Scan type : Progressive
Compression mode : Lossy
Bits/(Pixel*Frame) : 0.281
Stream size : 571 MiB (88%)
Writing library : XviD 73
Audio #1
ID : 1
Format : AC-3
Format/Info : Audio Coding 3
Mode extension : CM (complete main)
Format settings, Endianness : Big
Codec ID : 2000
Duration : 51mn 53s
Bit rate mode : Constant
Bit rate : 192 Kbps
Channel(s) : 2 channels
Channel positions : Front: L R
Sampling rate : 48.0 KHz
Bit depth : 16 bits
Compression mode : Lossy
Stream size : 71.3 MiB (11%)
Alignment : Split accross interleaves
Interleave, duration : 40 ms (1.00 video frame)
Interleave, preload duration : 500 ms


Трекер:  [ 04-Окт-2016 21:00 ]

  

Скачать .torrent

Размер .torrent файла 16 KB


Размер: 3.15 GB
Хэш (hash) релиза: b29c63b058d33ffd3aea947496bc6819d1695114
Подписка на обновления:

Торренты, похожие на Жила-была одна баба Серии: 1-5 из 5 скачать торрент

Форум Название Автор Размер S L Добавлен
Российские сериалы ·· Жила-была одна баба / Серии: 1-5 из 5 (Расширенная версия) (Андрей Смирнов) [2014, Драма, история, WEBRip 1080i] Galfimbul 66548133996.2 GB 0 0 1475586696

16:11

4-Окт-16

Еще никто не оставлял запись к записи скачать торрент Жила-была одна баба Серии: 1-5 из 5 . Будь первым!

!Обратная связь