Survivor S36E07 HDTV x264-F43[ettv]
1x44 Dragon Ball Super

Скачать через торрент [ANIME] Ловцы забытых голосов Hoshi o Ou Kodomo бесплатно русская версия torrent активатор

Статистика раздачи
Размер:  1001 MB   |    Зарегистрирован:  1 год 6 месяцев   |    .torrent скачан:  27 раз   |   
Раздают:  1  
   
загрузка...
 
Автор Сообщение

Galfimbul

avatar Galfimbul


<span class="post-font-serif1">Ловцы забытых голосов / Hoshi o Ou Kodomo / Children Who Chase Lost Voices from Deep Below
Год выпуска: 2011
Страна: Япония
Жанр: приключения, фэнтези, романтика
Продолжительность: 01:56:00
Перевод: Профессиональный (многоголосый закадровый) Omikron Studio
Режиссер: Макото Синкай / Makoto Shinkai
Описание: Асуна - школьница, которая очень рано потеряла отца и теперь живет с мамой. Дома большую часть времени она проводит сама, так как мама работает в госпитале на ночных сменах. В школе у нее очень хорошая успеваемость, но друзей не так уж и много. Вечера она проводит на склоне холма, слушая старое радио с помощью кристалла, который достался ей в память о папе. Однажды по дороге на холм на нее нападает огромное создание, от которого ее спасает юноша по имени Шун. Через несколько дней Асуна узнает что он погиб, и отправляется в его мир чтобы вновь встретиться со своим другом.
Качество: HDRip
Формат: MP4
Видео: MPEG-4 Visual, 640x360 (16:9), 1080 Kbps, 23,976 fps
Аудио: Русский, AAC, 2 ch, 128 Kbps, 48 KHz</span>
ОбщееПолное имя : D:\Раздачи\Children Who Chase Lost Voices from Deep Below (2011) HDRip 640x.mp4Формат : MPEG-4Профиль формата : Base Media / Version 2Идентификатор кодека : mp42 (isom/mp42/3gp5)Размер файла : 1001 МбайтПродолжительность : 1 ч. 55 м.Режим общего битрейта : ПеременныйОбщий поток : 1206 Кбит/секДата кодирования : UTC 2016-10-03 06:32:27Дата пометки : UTC 2016-10-03 06:32:27

ВидеоИдентификатор : 201Формат : MPEG-4 VisualПрофиль формата : [email protected]Параметр BVOP формата : НетПараметр QPel формата : НетПараметр GMC формата : Без точки переходаПараметр матрицы формата : Default (H.263)Идентификатор кодека : 20Продолжительность : 1 ч. 55 м.Вид битрейта : ПеременныйБитрейт : 1078 Кбит/секМаксимальный битрейт : 9644 Кбит/секШирина : 640 пикселейВысота : 360 пикселейСоотношение сторон : 16:9Режим частоты кадров : ПостоянныйЧастота кадров : 23,976 (24000/1001) кадра/секЦветовое пространство : YUVСубдискретизация насыщенности : 4:2:0Битовая глубина : 8 битТип развёртки : ПрогрессивнаяМетод сжатия : С потерямиБит/(Пиксели*Кадры) : 0.195Размер потока : 895 Мбайт (89%)Библиотека кодирования : Lavc52.30.2Дата кодирования : UTC 2016-10-03 06:32:27Дата пометки : UTC 2016-10-03 06:34:22

АудиоИдентификатор : 101Формат : AACФормат/Информация : Advanced Audio CodecПрофиль формата : LCИдентификатор кодека : 40Продолжительность : 1 ч. 55 м.Вид битрейта : ПеременныйБитрейт : 125 Кбит/секМаксимальный битрейт : 196 Кбит/секКаналы : 2 каналаРасположение каналов : Front: L RЧастота : 48,0 КГцЧастота кадров : 46,875 кадров/сек (1024 spf)Метод сжатия : С потерямиРазмер потока : 104 Мбайт (10%)Дата кодирования : UTC 2016-10-03 06:34:04Дата пометки : UTC 2016-10-03 06:34:22

Прочее #1Идентификатор : 2Тип : Object descriptionФормат : SystemИдентификатор кодека : 1Продолжительность : 1 с. 0 мс.Дата кодирования : UTC 2016-10-03 06:34:22Дата пометки : UTC 2016-10-03 06:34:22

Прочее #2Идентификатор : 1Тип : Scene descriptionФормат : System CoreИдентификатор кодека : 2Продолжительность : 1 с. 0 мс.Дата кодирования : UTC 2016-10-03 06:34:22Дата пометки : UTC 2016-10-03 06:34:22


Трекер:  [ 04-Окт-2016 17:00 ]

  

Скачать .torrent

Размер .torrent файла 20 KB


Размер: 1001 MB
Хэш (hash) релиза: 71051199c6d38633996e7704c9f1f1d6feecbcde

Еще никто не оставлял запись к записи скачать торрент [ANIME] Ловцы забытых голосов Hoshi o Ou Kodomo . Будь первым!

!Обратная связь