12 Monkeys S03E02 720p HDTV x264-SVA [eztv] | Orange.Is.The.New.Black.S05D1.NTSC.DVDR-ToF | Spionage

Скачать через торрент Жила-была одна баба Серии: 1-5 из 5 Фильм бесплатно в хорошем качестве torrent

Скачивайте на UnionPeer.org фильмы через торрент без регистрации. Новинки кино в хорошем качестве через торрент. На UnionPeer.org можно скачать через торрент фильмы 2014 и 2015 годов. Самые новые фильмы.

Скачать торрент Жила-была одна баба Серии: 1-5 из 5 бесплатно через .torrent фильм мультфильм сериал

Статистика раздачи
Размер:  6.2 GB   |    Зарегистрирован:  1 год 8 месяцев   |    .torrent скачан:  95 раз   |   
Раздают:  1  
   
загрузка...
 
Автор Сообщение

Galfimbul

avatar Galfimbul


Жила-была одна баба
«Те, кто не помнят прошлого, обречены переживать его вновь...»
Год выпуска: 2014
Производство: Россия, Рекун-синема
Жанр: Драма, история
Продолжительность: 00:52:00
Субтитры: Нет

Режиссёр: Андрей Смирнов

В ролях: Дарья Екамасова, Владислав Абашин, Максим Аверин, Алексей Серебряков, Алексей Шевченков, Роман Мадянов, Евдокия Германова, Агриппина Стеклова, Андрей Курносов, Александр Колодин
Описание: История частной жизни одной женщины и четверых ее мужчин. Главная героиня — неграмотная крестьянка, и действие фильма начинается с ее свадьбы в 1909 году, когда девушку из нищей семьи взяли в богатую, а кончается в 1921 году Антоновским восстанием.
Релиз группа:
<a href="tracker.php?f=9&nm=%D0%96%D0%B8%D0%BB%D0%B0%20%D0%B1%D1%8B%D0%BB%D0%B0%20%D0%BE%D0%B4%D0%BD%D0%B0%20%D0%B1%D0%B0%D0%B1%D0%B0" class="postLink">Все раздачи сериала</a> / Сэмпл
Качество: WEBRip 1080i
Формат: MKV
Видео кодек: AVI
Аудио кодек: AC3
Видео: AVC, 1920х1080 (16:9), 25,000 кадр/сек, 2 696 Kbps Кбит/сек, 0.052 bit/pixel
Аудио: AC3, 44 kHz, 192 Kbps, 2 канала
General

Complete name : \Downloads\Zyla.byla.odna.baba.2014.WEB-DL1080.Files-x
Format : Matroska
Format version : Version 4 / Version 2
File size : 1.07 GiB
Duration : 51mn 55s
Overall bit rate : 2 946 Kbps
Writing application : Lavf56.25.101
Writing library : Lavf56.25.101
Video #1
ID : 1
Format : AVC
Format/Info : Advanced Video Codec
Format profile : [email protected]
Format settings, CABAC : Yes
Format settings, ReFrames : 2 frames
Codec ID : V_MPEG4/ISO/AVC
Duration : 51mn 55s
Bit rate : 2 696 Kbps
Width : 1 920 pixels
Height : 1 080 pixels
Display aspect ratio : 16:9
Frame rate mode : Constant
Frame rate : 25.000 fps
Color space : YUV
Chroma subsampling : 4:2:0
Bit depth : 8 bits
Scan type : Progressive
Bits/(Pixel*Frame) : 0.052
Stream size : 1 001 MiB (91%)
Default : Yes
Forced : No
Color primaries : BT.709
Transfer characteristics : BT.709
Matrix coefficients : BT.709
Color range : Limited
Audio #2
ID : 2
Format : AC-3
Format/Info : Audio Coding 3
Mode extension : CM (complete main)
Format settings, Endianness : Big
Codec ID : A_AC3
Duration : 51mn 55s
Bit rate mode : Constant
Bit rate : 192 Kbps
Channel(s) : 2 channels
Channel positions : Front: L R
Sampling rate : 44.1 KHz
Bit depth : 16 bits
Compression mode : Lossy
Delay relative to video : 29ms
Stream size : 71.3 MiB (7%)
Default : Yes
Forced : No


Трекер:  [ 04-Окт-2016 16:00 ]

  

Скачать .torrent

Размер .torrent файла 32 KB


Размер: 6.2 GB
Хэш (hash) релиза: 228bf201a4c006a1163e9673f21d43a04c1bb9f3
Подписка на обновления:

Торренты, похожие на Жила-была одна баба Серии: 1-5 из 5 скачать торрент

Форум Название Автор Размер S L Добавлен
Российские сериалы ·· Жила-была одна баба / Серии: 1-5 из 5 (Расширенная версия) (Андрей Смирнов) [2014, Драма, история, WEBRip] Galfimbul 33863536643.15 GB 0 0 1475604968

21:16

4-Окт-16

Еще никто не оставлял запись к записи скачать торрент Жила-была одна баба Серии: 1-5 из 5 . Будь первым!

!Обратная связь