Espionnage | Тихое место / A Quiet place (2018) BDRip 720p от Scarabey | HDRezka Studio | El chiringuito de Jugones

Скачать через торрент музыку Завтрашний Джо Ashita no Joe Song File бесплатно без регистрации torrent

Статистика раздачи
Размер:  285 MB   |    Зарегистрирован:  1 год 10 месяцев   |    .torrent скачан:  15 раз   |   
Раздают:  1  
   
загрузка...
 
Автор Сообщение

Galfimbul

avatar Galfimbul



<span class="post-font-serif1">Ashita no Joe Song File</span>
Год выпуска: 2002 г.
Страна: Япония
Аудио кодек: FLAC
Тип рипа: tracks+.cue
Продолжительность: 44:01
Источник: Kenshin
01 Ashita no Joe
02 Rikiishi Tooru no Theme
03 Utsukushiki Ookamitachi
04 Hateshinaki Yami no Kanata ni
05 KO (Knockout)
06 Kizudarake no Eikou
07 Joe no Komoriuta
08 Goodbye Joe
09 MIDNIGHT BLUES
10 Hateshinaki Yami no Kanata ni
11 Rolling Fighter ~instrumental~
12 Seishun no Shuushou ~JOE...FOREVER~
Exact Audio Copy V1.0 beta 3 from 29. August 2011

EAC extraction logfile from 3. October 2016, 18:29

VA / あしたのジョー ソングファイル

Used drive : HL-DT-STDVDRAM GH22NS50 Adapter: 3 ID: 1

Read mode : SecureUtilize accurate stream : YesDefeat audio cache : YesMake use of C2 pointers : No

Read offset correction : 667Overread into Lead-In and Lead-Out : NoFill up missing offset samples with silence : YesDelete leading and trailing silent blocks : NoNull samples used in CRC calculations : YesUsed interface : Native Win32 interface for Win NT & 2000Gap handling : Appended to previous track

Used output format : User Defined EncoderSelected bitrate : 1024 kBit/sQuality : HighAdd ID3 tag : NoCommand line compressor : C:\Program Files\Exact Audio Copy\Flac\flac.exeAdditional command line options : -V -8 -T "Genre=%genre%" -T "Artist=%artist%" -T "Title=%title%" -T "Album=%albumtitle%" -T "Date=%year%" -T "Tracknumber=%tracknr%" -T "Comment=%comment%" %source%

TOC of the extracted CD

Track | Start | Length | Start sector | End sector --------------------------------------------------------- 1 | 0:00.00 | 3:33.36 | 0 | 16010 2 | 3:33.36 | 3:19.07 | 16011 | 30942 3 | 6:52.43 | 5:01.60 | 30943 | 53577 4 | 11:54.28 | 3:36.72 | 53578 | 69849 5 | 15:31.25 | 3:41.50 | 69850 | 86474 6 | 19:13.00 | 3:22.40 | 86475 | 101664 7 | 22:35.40 | 2:10.69 | 101665 | 111483 8 | 24:46.34 | 4:34.05 | 111484 | 132038 9 | 29:20.39 | 4:15.60 | 132039 | 151223 10 | 33:36.24 | 3:31.36 | 151224 | 167084 11 | 37:07.60 | 2:41.15 | 167085 | 179174 12 | 39:49.00 | 4:18.20 | 179175 | 198544

Track 1

Filename D:\j\01 あしたのジョー.wav

Pre-gap length 0:00:02.00

Peak level 97.7 % Extraction speed 0.8 X Track quality 99.9 % Test CRC 9E0482E9 Copy CRC 9E0482E9 Accurately ripped (confidence 4) [9735C99D] (AR v2) Copy OK

Track 2

Filename D:\j\02 力石徹のテーマ.wav

Peak level 97.7 % Extraction speed 1.1 X Track quality 100.0 % Test CRC EDB8B646 Copy CRC EDB8B646 Accurately ripped (confidence 4) [48ABDD35] (AR v2) Copy OK

Track 3

Filename D:\j\03 美しき狼たち.wav

Peak level 97.7 % Extraction speed 1.1 X Track quality 99.9 % Test CRC 2FCB8C79 Copy CRC 2FCB8C79 Accurately ripped (confidence 4) [1132D9D9] (AR v2) Copy OK

Track 4

Filename D:\j\04 果てしなき闇の彼方に.wav

Peak level 97.7 % Extraction speed 1.3 X Track quality 100.0 % Test CRC 610CD7F8 Copy CRC 610CD7F8 Accurately ripped (confidence 4) [564C5280] (AR v2) Copy OK

Track 5

Filename D:\j\05 KO (ノック・アウト).wav

Peak level 97.7 % Extraction speed 1.4 X Track quality 100.0 % Test CRC E12F78B6 Copy CRC E12F78B6 Accurately ripped (confidence 4) [AA6103B9] (AR v2) Copy OK

Track 6

Filename D:\j\06 傷だらけの栄光.wav

Peak level 97.7 % Extraction speed 1.2 X Track quality 99.9 % Test CRC EE373C76 Copy CRC EE373C76 Accurately ripped (confidence 4) [24174BAE] (AR v2) Copy OK

Track 7

Filename D:\j\07 ジョーの子守唄.wav

Peak level 97.7 % Extraction speed 1.4 X Track quality 100.0 % Test CRC B6ADED1D Copy CRC B6ADED1D Accurately ripped (confidence 4) [877A978A] (AR v2) Copy OK

Track 8

Filename D:\j\08 グッバイ・ジョー.wav

Peak level 97.7 % Extraction speed 1.6 X Track quality 100.0 % Test CRC 8CC44B9A Copy CRC 8CC44B9A Accurately ripped (confidence 4) [C0C32780] (AR v2) Copy OK

Track 9

Filename D:\j\09 MIDNIGHT BLUES.wav

Peak level 97.7 % Extraction speed 1.7 X Track quality 100.0 % Test CRC EF9227A2 Copy CRC EF9227A2 Accurately ripped (confidence 4) [D899E67D] (AR v2) Copy OK

Track 10

Filename D:\j\10 果てしなき闇の彼方に.wav

Peak level 97.7 % Extraction speed 1.5 X Track quality 99.9 % Test CRC 40FE1F50 Copy CRC 40FE1F50 Accurately ripped (confidence 4) [E1EA3F33] (AR v2) Copy OK

Track 11

Filename D:\j\11 ローリング・ファイター ~instrumental~.wav

Peak level 97.7 % Extraction speed 1.6 X Track quality 100.0 % Test CRC 1D98A712 Copy CRC 1D98A712 Accurately ripped (confidence 4) [6A07113F] (AR v2) Copy OK

Track 12

Filename D:\j\12 青春の終章 ~JOE...FOREVER~.wav

Peak level 97.7 % Extraction speed 1.9 X Track quality 100.0 % Test CRC ED008732 Copy CRC ED008732 Accurately ripped (confidence 3) [1A01F2FA] (AR v2) Copy OK

All tracks accurately ripped

No errors occurred

End of status report

==== Log checksum 46B37934BFCC66ED1E3AE2E02B2CFF0D00BDA1A56CB3A20C53AA00CBC78E93C0 ====
REM GENRE AnimeREM DATE 2002REM DISCID 9A0A570CREM COMMENT "ExactAudioCopy v1.0b3"PERFORMER "VA"TITLE "あしたのジョー ソングファイル"FILE "01 あしたのジョー.wav" WAVE TRACK 01 AUDIO TITLE "あしたのジョー" PERFORMER "尾藤イサオ" FLAGS DCP INDEX 01 00:00:00FILE "02 力石徹のテーマ.wav" WAVE TRACK 02 AUDIO TITLE "力石徹のテーマ" PERFORMER "ヒデ夕木" FLAGS DCP INDEX 01 00:00:00FILE "03 美しき狼たち.wav" WAVE TRACK 03 AUDIO TITLE "美しき狼たち" PERFORMER "おぼたけし" FLAGS DCP INDEX 01 00:00:00FILE "04 果てしなき闇の彼方に.wav" WAVE TRACK 04 AUDIO TITLE "果てしなき闇の彼方に" PERFORMER "おぼたけし" FLAGS DCP INDEX 01 00:00:00FILE "05 KO (ノック・アウト).wav" WAVE TRACK 05 AUDIO TITLE "KO (ノック・アウト)" PERFORMER "シミズ・ヤスオ" FLAGS DCP INDEX 01 00:00:00FILE "06 傷だらけの栄光.wav" WAVE TRACK 06 AUDIO TITLE "傷だらけの栄光" PERFORMER "おぼたけし" FLAGS DCP INDEX 01 00:00:00FILE "07 ジョーの子守唄.wav" WAVE TRACK 07 AUDIO TITLE "ジョーの子守唄" PERFORMER "小池朝雄" FLAGS DCP INDEX 01 00:00:00FILE "08 グッバイ・ジョー.wav" WAVE TRACK 08 AUDIO TITLE "グッバイ・ジョー" PERFORMER "スザンナ・スー" FLAGS DCP INDEX 01 00:00:00FILE "09 MIDNIGHT BLUES.wav" WAVE TRACK 09 AUDIO TITLE "MIDNIGHT BLUES" PERFORMER "荒木一郎" FLAGS DCP INDEX 01 00:00:00FILE "10 果てしなき闇の彼方に.wav" WAVE TRACK 10 AUDIO TITLE "果てしなき闇の彼方に" PERFORMER "荒木一郎" FLAGS DCP INDEX 01 00:00:00FILE "11 ローリング・ファイター ~instrumental~.wav" WAVE TRACK 11 AUDIO TITLE "ローリング・ファイター ~instrumental~" PERFORMER "鈴木邦彦" FLAGS DCP INDEX 01 00:00:00FILE "12 青春の終章 ~JOE...FOREVER~.wav" WAVE TRACK 12 AUDIO TITLE "青春の終章 ~JOE...FOREVER~" PERFORMER "ジョー山中" FLAGS DCP INDEX 01 00:00:00


Трекер:  [ 03-Окт-2016 18:00 ]

  

Скачать .torrent

Размер .torrent файла 12 KB


Размер: 285 MB
Хэш (hash) релиза: 8e1029cda91daa0a12f1827d0a8082a73abdd0df

Еще никто не оставлял запись к записи скачать торрент Завтрашний Джо Ashita no Joe Song File . Будь первым!

!Обратная связь