1x07 Garo | Aru Zombie Shoujo no Sainan (ONA) | 720p | TVRip | English Subbed | Seguente

Скачать через торрент [MULT] Семейный альбом Бари The Bearys Family Album бесплатно русская версия torrent активатор

Статистика раздачи
Размер:  1.3 GB   |    Зарегистрирован:  1 год 9 месяцев   |    .torrent скачан:  22 раза   |   
Раздают:  1  
   
загрузка...
 
Автор Сообщение

Galfimbul

avatar Galfimbul


<span class="post-font-serif1">Семейный альбом Бари / The Beary's Family Album</span>
Год выпуска: 1962 - 1972
Страна: США
Жанр: мультфильм, комедия
Продолжительность: ~00:06:00 серия
Перевод: Профессиональный (дублированный) Selena Int., по заказу ОРТ
Cубтитры: русские, вшитые (на серии 04, 08)
Режиссер: Пол Дж. Смит / Paul J. Smith
Описание: В мультфильме "Семейный альбом Бари" рассказываются истории из жизни семьи Бари - Чарли-старшего, его жены Бесси, сына Чарли-младшего и дочери Сьюзи. Главный герой (Чарли-старший) очень не любит тратить деньги. Если протечет крыша или замучает зловредный суслик, Чарли не позволит жене вызвать мастера. "Я сделаю это сам!" - говорит он и зовет Чарли-младшего на помощь. Чарли - ужасный неудачник, а его сын - глупый и наивный. Не обходится без проблем. То труба упадет на голову, то бьющая из шланга струя выбьет все окна. Жена Бесси очень злая и бьёт Чарли за все его оплошности. Вместо экономии Чарли несет сплошные убытки.
P.S. Очень смешной мультсериал
Качество: DVDRip, SATRip
Формат: MP4
Видео: MPEG-4 Visual, 480x360 (4:3), 1080 Kbps, 23,976 fps
Аудио: Русский, AAC, 2 ch, 128 Kbps, 48 KHz
01. Fowled-Up Birthday (1962)
02. Mother's Little Helper (1962)
03. Charlie's Mother-In-Law (1963)
04. Goose In The Rough (1963) - переведена субтитрами
05. Goose Is Wild (1963)
06. Rah Rah Ruckus (1964)
07. Roof Top Razzle-Dazzle (1964)
08. Guest Who? (1965) - переведена субтитрами
09. Davey Cricket (1965)
10. Foot Brawl (1966)
11. Window Pains (1967)
12. Mouse In The House (1967)
13. Jerky Turkey (1968)
14. Paste Makes Waste (1968)
15. Bugged In A Rug (1968)
16. Gopher Broke (1969)
17. Charlie's Campout (1969)
18. Cool It Charlie (1969)
19. Charlie In Hot Water (1970)
20. Charlie's Golf Classic (1970)
21. The Unhandy Man (1970)
22. Charlie The Rainmaker (1971)
23. The Bungling Builder (1971)
24. Moochin Pooch (1971)
25. Let Charlie Do It (1972)
26. A Fish Story (1972)
27. Rain, Rain, Go Away (1972)
28. Unlucky Potluck (1972) - отсутствует в раздаче
ОбщееПолное имя : D:\Раздачи\The Beary's Family Album 480x\01 - Fowled Up Birthday [DVDRip].mp4Формат : MPEG-4Профиль формата : Base Media / Version 2Идентификатор кодека : mp42 (isom/mp42/3gp5)Размер файла : 53,6 МбайтПродолжительность : 6 м. 14 с.Режим общего битрейта : ПеременныйОбщий поток : 1202 Кбит/секДата кодирования : UTC 2016-09-26 11:19:38Дата пометки : UTC 2016-09-26 11:19:38

ВидеоИдентификатор : 201Формат : MPEG-4 VisualПрофиль формата : [email protected]Параметр BVOP формата : НетПараметр QPel формата : НетПараметр GMC формата : Без точки переходаПараметр матрицы формата : Default (H.263)Идентификатор кодека : 20Продолжительность : 6 м. 14 с.Вид битрейта : ПеременныйБитрейт : 1074 Кбит/секМаксимальный битрейт : 2705 Кбит/секШирина : 480 пикселейВысота : 360 пикселейСоотношение сторон : 4:3Режим частоты кадров : ПостоянныйЧастота кадров : 23,976 (24000/1001) кадра/секЦветовое пространство : YUVСубдискретизация насыщенности : 4:2:0Битовая глубина : 8 битТип развёртки : ПрогрессивнаяМетод сжатия : С потерямиБит/(Пиксели*Кадры) : 0.259Размер потока : 47,9 Мбайт (89%)Библиотека кодирования : Lavc52.30.2Дата кодирования : UTC 2016-09-26 11:19:38Дата пометки : UTC 2016-09-26 11:19:40

АудиоИдентификатор : 101Формат : AACФормат/Информация : Advanced Audio CodecПрофиль формата : LCИдентификатор кодека : 40Продолжительность : 6 м. 14 с.Вид битрейта : ПеременныйБитрейт : 125 Кбит/секМаксимальный битрейт : 140 Кбит/секКаналы : 2 каналаРасположение каналов : Front: L RЧастота : 48,0 КГцЧастота кадров : 46,875 кадров/сек (1024 spf)Метод сжатия : С потерямиРазмер потока : 5,59 Мбайт (10%)Дата кодирования : UTC 2016-09-26 11:19:39Дата пометки : UTC 2016-09-26 11:19:40

Прочее #1Идентификатор : 2Тип : Object descriptionФормат : SystemИдентификатор кодека : 1Продолжительность : 1 с. 0 мс.Дата кодирования : UTC 2016-09-26 11:19:40Дата пометки : UTC 2016-09-26 11:19:40

Прочее #2Идентификатор : 1Тип : Scene descriptionФормат : System CoreИдентификатор кодека : 2Продолжительность : 1 с. 0 мс.Дата кодирования : UTC 2016-09-26 11:19:40Дата пометки : UTC 2016-09-26 11:19:40


Трекер:  [ 29-Сен-2016 16:00 ]

  

Скачать .torrent

Размер .torrent файла 15 KB


Размер: 1.3 GB
Хэш (hash) релиза: 25aa2ab700d0aa828d0192fd165b56d2df2209bd

Еще никто не оставлял запись к записи скачать торрент [MULT] Семейный альбом Бари The Bearys Family Album . Будь первым!

!Обратная связь