film de Ron Clements | Baby Tiger Care - My Cute Virtual Pet Friend | Novelas Mi marido tiene familia 2x24

Скачать через торрент [VIDEO] Беглецы Fled бесплатно русская версия torrent активатор

Статистика раздачи
Размер:  810 MB   |    Зарегистрирован:  1 год 10 месяцев   |    .torrent скачан:  27 раз   |   
Раздают:  1  
   
загрузка...
 
Автор Сообщение

Galfimbul

avatar Galfimbul


Беглецы / Fled
Год выпуска: 1996
Страна: США
Жанр: боевик, криминал, приключения
Продолжительность: 01:33:45
Перевод: Профессиональный (двухголосый закадровый) НТВ+
Режиссер: Кевин Хукс / Kevin Hooks
В ролях: Лоренс Фишбёрн, Стивен Болдуин, Уилл Пэттон, Сальма Хайек, Роберт Джон Бёрк, Роберт Хукс, Виктор Риверс, Дэвид Дьюкс, Кен Дженкинс, Майкл Нэйдер
Описание: Пайпер — крепкий орешек, Додж — компьютерный хакер, связь которого с 25 миллионами украденных долларов как магнит притягивает толпы наемных убийц и коррумпированных государственных чиновников. Внезапно действие принимает неожиданный оборот…

Единственное, что может спасти беглецов, это дискета, хранящая секрет дерзкого компьютерного взлома. В опасные поиски включаются: привлекательная молодая женщина, злокозненный судебный исполнитель, честный полицейский и кубинская мафия!
Качество: HDTVRip
Формат: MP4
Видео: MPEG-4 Visual, 640x360 (16:9), 1080 Kbps, 25 fps
Аудио: Русский, AAC, 2 ch, 128 Kbps, 48 KHz
ОбщееПолное имя : D:\Раздачи\Fled (1996) HDTVRip 640x.mp4Формат : MPEG-4Профиль формата : Base Media / Version 2Идентификатор кодека : mp42 (isom/mp42/3gp5)Размер файла : 810 МбайтПродолжительность : 1 ч. 33 м.Режим общего битрейта : ПеременныйОбщий поток : 1208 Кбит/секДата кодирования : UTC 2016-09-24 12:57:01Дата пометки : UTC 2016-09-24 12:57:01

ВидеоИдентификатор : 201Формат : MPEG-4 VisualПрофиль формата : [email protected]Параметр BVOP формата : НетПараметр QPel формата : НетПараметр GMC формата : Без точки переходаПараметр матрицы формата : Default (H.263)Идентификатор кодека : 20Продолжительность : 1 ч. 33 м.Вид битрейта : ПеременныйБитрейт : 1080 Кбит/секМаксимальный битрейт : 5342 Кбит/секШирина : 640 пикселейВысота : 360 пикселейСоотношение сторон : 16:9Режим частоты кадров : ПостоянныйЧастота кадров : 25,000 кадров/секЦветовое пространство : YUVСубдискретизация насыщенности : 4:2:0Битовая глубина : 8 битТип развёртки : ПрогрессивнаяМетод сжатия : С потерямиБит/(Пиксели*Кадры) : 0.187Размер потока : 724 Мбайт (89%)Библиотека кодирования : Lavc52.30.2Дата кодирования : UTC 2016-09-24 12:57:01Дата пометки : UTC 2016-09-24 12:58:21

АудиоИдентификатор : 101Формат : AACФормат/Информация : Advanced Audio CodecПрофиль формата : LCИдентификатор кодека : 40Продолжительность : 1 ч. 33 м.Вид битрейта : ПеременныйБитрейт : 125 Кбит/секМаксимальный битрейт : 184 Кбит/секКаналы : 2 каналаРасположение каналов : Front: L RЧастота : 48,0 КГцЧастота кадров : 46,875 кадров/сек (1024 spf)Метод сжатия : С потерямиРазмер потока : 84,0 Мбайт (10%)Дата кодирования : UTC 2016-09-24 12:58:08Дата пометки : UTC 2016-09-24 12:58:21

Прочее #1Идентификатор : 2Тип : Object descriptionФормат : SystemИдентификатор кодека : 1Продолжительность : 1 с. 0 мс.Дата кодирования : UTC 2016-09-24 12:58:21Дата пометки : UTC 2016-09-24 12:58:21

Прочее #2Идентификатор : 1Тип : Scene descriptionФормат : System CoreИдентификатор кодека : 2Продолжительность : 1 с. 0 мс.Дата кодирования : UTC 2016-09-24 12:58:21Дата пометки : UTC 2016-09-24 12:58:21


Трекер:  [ 26-Сен-2016 11:00 ]

  

Скачать .torrent

Размер .torrent файла 16 KB


Размер: 810 MB
Хэш (hash) релиза: 73e4308f29a040d493d8348f7a58bd65872deaa2

Еще никто не оставлял запись к записи скачать торрент [VIDEO] Беглецы Fled . Будь первым!

!Обратная связь