Rozen Maiden | Professional WordPress Plugin Development | Watch Movie

Скачать через торрент [ANIME] Сад изящных слов Kotonoha no Niwa бесплатно русская версия torrent активатор

Статистика раздачи
Размер:  396 MB   |    Зарегистрирован:  1 год 10 месяцев   |    .torrent скачан:  24 раза   |   
Раздают:  1  
   
загрузка...
 
Автор Сообщение

Galfimbul

avatar Galfimbul


<span class="post-font-serif1">Сад изящных слов / Kotonoha no Niwa / The Garden of Words</span>
Год выпуска: 2013
Страна: Япония
Жанр: романтика, драма
Продолжительность: 00:45:51
Перевод: Профессиональный (многоголосый закадровый) Kansai Studio
Режиссер: Макото Синкай / Makoto Shinkai
Описание: Юноша по имени Такао встречает таинственную молодую женщину. Их случайные и как будто ни к чему не ведущие встречи в парке, где Такао прогуливает занятия, работая над достижением своей странной мечты — посвятить жизнь конструированию и изготовлению обуви — повторяются снова и снова… правда, только в ненастные дни. Сердца героев начинают приоткрываться друг другу, но на это нужно время, а впереди уже маячит конец сезона дождей…
Качество: HDRip
Формат: MP4
Видео: MPEG-4 Visual, 640x360 (16:9), 1080 Kbps, 23,976 fps
Аудио: Русский, AAC, 2 ch, 128 Kbps, 48 KHz
ОбщееПолное имя : D:\Раздачи\Garden of Words (2013) HDRip 640x.mp4Формат : MPEG-4Профиль формата : Base Media / Version 2Идентификатор кодека : mp42 (isom/mp42/3gp5)Размер файла : 396 МбайтПродолжительность : 45 м.Режим общего битрейта : ПеременныйОбщий поток : 1208 Кбит/секДата кодирования : UTC 2016-09-23 08:09:25Дата пометки : UTC 2016-09-23 08:09:25

ВидеоИдентификатор : 201Формат : MPEG-4 VisualПрофиль формата : [email protected]Параметр BVOP формата : НетПараметр QPel формата : НетПараметр GMC формата : Без точки переходаПараметр матрицы формата : Default (H.263)Идентификатор кодека : 20Продолжительность : 45 м.Вид битрейта : ПеременныйБитрейт : 1077 Кбит/секМаксимальный битрейт : 9349 Кбит/секШирина : 640 пикселейВысота : 360 пикселейСоотношение сторон : 16:9Режим частоты кадров : ПостоянныйЧастота кадров : 23,976 (24000/1001) кадра/секЦветовое пространство : YUVСубдискретизация насыщенности : 4:2:0Битовая глубина : 8 битТип развёртки : ПрогрессивнаяМетод сжатия : С потерямиБит/(Пиксели*Кадры) : 0.195Размер потока : 353 Мбайт (89%)Библиотека кодирования : Lavc52.30.2Дата кодирования : UTC 2016-09-23 08:09:25Дата пометки : UTC 2016-09-23 08:09:44

АудиоИдентификатор : 101Формат : AACФормат/Информация : Advanced Audio CodecПрофиль формата : LCИдентификатор кодека : 40Продолжительность : 45 м.Вид битрейта : ПеременныйБитрейт : 128 Кбит/секМаксимальный битрейт : 201 Кбит/секКаналы : 2 каналаРасположение каналов : Front: L RЧастота : 48,0 КГцЧастота кадров : 46,875 кадров/сек (1024 spf)Метод сжатия : С потерямиРазмер потока : 42,0 Мбайт (11%)Дата кодирования : UTC 2016-09-23 08:09:40Дата пометки : UTC 2016-09-23 08:09:44

Прочее #1Идентификатор : 2Тип : Object descriptionФормат : SystemИдентификатор кодека : 1Продолжительность : 1 с. 0 мс.Дата кодирования : UTC 2016-09-23 08:09:44Дата пометки : UTC 2016-09-23 08:09:44

Прочее #2Идентификатор : 1Тип : Scene descriptionФормат : System CoreИдентификатор кодека : 2Продолжительность : 1 с. 0 мс.Дата кодирования : UTC 2016-09-23 08:09:44Дата пометки : UTC 2016-09-23 08:09:44


Трекер:  [ 24-Сен-2016 15:00 ]

  

Скачать .torrent

Размер .torrent файла 16 KB


Размер: 396 MB
Хэш (hash) релиза: cdb2c935cd3dbbe0ee0e5903bf24d3a382989e00

Еще никто не оставлял запись к записи скачать торрент [ANIME] Сад изящных слов Kotonoha no Niwa . Будь первым!

!Обратная связь