SWING BIG BANDS en Vintage Music | Télécharger Part 11 | Season 5 Episode 13 That's the Way Love Goes

Скачать через торрент [VIDEO] Белые росы бесплатно русская версия torrent активатор

Статистика раздачи
Размер:  718 MB   |    Зарегистрирован:  1 год 10 месяцев   |    .torrent скачан:  22 раза   |   
Раздают:  1  
   
загрузка...
 
Автор Сообщение

Galfimbul

avatar Galfimbul


<span class="post-font-serif1">Белые росы</span>
Год выпуска: 1983
Страна: СССР
Жанр: лирическая комедия
Продолжительность: 01:23:36
Режиссер: Игорь Добролюбов
В ролях: Всеволод Санаев, Николай Караченцов, Михаил Кокшенов, Геннадий Гарбук, Борис Новиков, Галина Польских, Наталья Харахорина, Станислав Садальский, Стефания Станюта
Описание: В небольшой белорусской деревеньке Белые Росы живет заслуженный и уважаемый человек Федос Ходас. Он уже давно овдовел. Стали взрослыми и три его сына-погодка. И за каждого из них болит отцовское сердце, каждому старается помочь. Старший Андрей - человек основательный, но ему мешает его расчетливость. Балагур и весельчак Васька может потерять семью из-за бывшего возлюбленного его жены Маруси. Средний - Сашка - уехал на Курилы и уже 15 лет не был дома...
Качество: HDTVRip
Формат: MP4
Видео: MPEG-4 Visual, 640x360 (16:9), 1080 Kbps, 25 fps
Аудио: Русский, AAC, 2 ch, 128 Kbps, 48 KHz
ОбщееПолное имя : D:\Раздачи\Белые росы (1983) HDTVRip.mp4Формат : MPEG-4Профиль формата : Base Media / Version 2Идентификатор кодека : mp42 (isom/mp42/3gp5)Размер файла : 718 МбайтПродолжительность : 1 ч. 23 м.Режим общего битрейта : ПеременныйОбщий поток : 1201 Кбит/секДата кодирования : UTC 2016-09-18 05:35:55Дата пометки : UTC 2016-09-18 05:35:55

ВидеоИдентификатор : 201Формат : MPEG-4 VisualПрофиль формата : [email protected]Параметр BVOP формата : НетПараметр QPel формата : НетПараметр GMC формата : Без точки переходаПараметр матрицы формата : Default (H.263)Идентификатор кодека : 20Продолжительность : 1 ч. 23 м.Вид битрейта : ПеременныйБитрейт : 1073 Кбит/секМаксимальный битрейт : 5022 Кбит/секШирина : 640 пикселейВысота : 360 пикселейСоотношение сторон : 16:9Режим частоты кадров : ПостоянныйЧастота кадров : 25,000 кадров/секЦветовое пространство : YUVСубдискретизация насыщенности : 4:2:0Битовая глубина : 8 битТип развёртки : ПрогрессивнаяМетод сжатия : С потерямиБит/(Пиксели*Кадры) : 0.186Размер потока : 642 Мбайт (89%)Библиотека кодирования : Lavc52.30.2Дата кодирования : UTC 2016-09-18 05:35:55Дата пометки : UTC 2016-09-18 05:37:07

АудиоИдентификатор : 101Формат : AACФормат/Информация : Advanced Audio CodecПрофиль формата : LCИдентификатор кодека : 40Продолжительность : 1 ч. 23 м.Вид битрейта : ПеременныйБитрейт : 125 Кбит/секМаксимальный битрейт : 200 Кбит/секКаналы : 2 каналаРасположение каналов : Front: L RЧастота : 48,0 КГцЧастота кадров : 46,875 кадров/сек (1024 spf)Метод сжатия : С потерямиРазмер потока : 75,0 Мбайт (10%)Дата кодирования : UTC 2016-09-18 05:36:55Дата пометки : UTC 2016-09-18 05:37:07

Прочее #1Идентификатор : 2Тип : Object descriptionФормат : SystemИдентификатор кодека : 1Продолжительность : 1 с. 0 мс.Дата кодирования : UTC 2016-09-18 05:37:07Дата пометки : UTC 2016-09-18 05:37:07

Прочее #2Идентификатор : 1Тип : Scene descriptionФормат : System CoreИдентификатор кодека : 2Продолжительность : 1 с. 0 мс.Дата кодирования : UTC 2016-09-18 05:37:07Дата пометки : UTC 2016-09-18 05:37:07


Трекер:  [ 19-Сен-2016 11:00 ]

  

Скачать .torrent

Размер .torrent файла 14 KB


Размер: 718 MB
Хэш (hash) релиза: 3562ed7301bb1f21d09a4d8896aa4ad9cc036cb5

Еще никто не оставлял запись к записи скачать торрент [VIDEO] Белые росы . Будь первым!

!Обратная связь