Power Rangers Ninja Steel | Ansatsu Kyoushitsu S2 | Assassination Classroom S2 | 480p | TVRip | Dual Audio | Regarder Le Film

Скачать через торрент [VIDEO] Неудержимые The Expendables бесплатно русская версия torrent активатор

Статистика раздачи
Размер:  893 MB   |    Зарегистрирован:  1 год 10 месяцев   |    .torrent скачан:  37 раз   |   
Раздают:  1  
   
загрузка...
 
Автор Сообщение

Galfimbul

avatar Galfimbul


<span class="post-font-serif1">Неудержимые / The Expendables</span>
Год выпуска: 2010
Страна: США
Жанр: боевик, триллер, приключения
Продолжительность: 01:43:27
Перевод: Профессиональный (дублированный) РЕН-ТВ
Cубтитры: есть, вшитые (на исп. речь)
Режиссер: Сильвестр Сталлоне / Sylvester Stallone
В ролях: Сильвестр Сталлоне, Джейсон Стэтхэм, Джет Ли, Дольф Лундгрен, Эрик Робертс, Рэнди Кутюр, Стив Остин, Дэвид Зайас, Жизель Итье, Харизма Карпентер, Микки Рурк, Арнольд Шварценеггер, Брюс Уиллис
Описание: Отряд профессиональных наёмников и отчаянных парней во главе с Барни Россом получает непростое задание — любой ценой найти и уничтожить кровавого тирана-диктатора, нагнетающего страх на мирное население и сеющего хаос в южноамериканской стране.

Отправляясь на выполнение нелёгкой миссии, закалённые огнём и водой, прошедшие не одну войну, люди Росса попадают в самое пекло. Отныне им придётся выживать: сплотиться и достигнуть цели, либо отчаяться и погибнуть. И всё же эти храбрые, поистине невозмутимые ребята готовы реализовать даже не реализуемое. Но не всё так просто, как кажется на первый взгляд…
Качество: HDRip
Формат: MP4
Видео: MPEG-4 Visual, 640x272 (2.35:1), 1080 Kbps, 23,976 fps
Аудио: Русский, AAC, 2 ch, 128 Kbps, 48 KHz
ОбщееПолное имя : D:\The Expendables (2010) HDRip 640x.mp4Формат : MPEG-4Профиль формата : Base Media / Version 2Идентификатор кодека : mp42 (isom/mp42/3gp5)Размер файла : 893 МбайтПродолжительность : 1 ч. 43 м.Режим общего битрейта : ПеременныйОбщий поток : 1207 Кбит/секДата кодирования : UTC 2016-09-15 08:16:42Дата пометки : UTC 2016-09-15 08:16:42

ВидеоИдентификатор : 201Формат : MPEG-4 VisualПрофиль формата : [email protected]Параметр BVOP формата : НетПараметр QPel формата : НетПараметр GMC формата : Без точки переходаПараметр матрицы формата : Default (H.263)Идентификатор кодека : 20Продолжительность : 1 ч. 43 м.Вид битрейта : ПеременныйБитрейт : 1079 Кбит/секМаксимальный битрейт : 10,5 Мбит/секШирина : 640 пикселейВысота : 272 пикселяСоотношение сторон : 2,35:1Режим частоты кадров : ПостоянныйЧастота кадров : 23,976 (24000/1001) кадра/секЦветовое пространство : YUVСубдискретизация насыщенности : 4:2:0Битовая глубина : 8 битТип развёртки : ПрогрессивнаяМетод сжатия : С потерямиБит/(Пиксели*Кадры) : 0.259Размер потока : 799 Мбайт (89%)Библиотека кодирования : Lavc52.30.2Дата кодирования : UTC 2016-09-15 08:16:42Дата пометки : UTC 2016-09-15 08:18:12

АудиоИдентификатор : 101Формат : AACФормат/Информация : Advanced Audio CodecПрофиль формата : LCИдентификатор кодека : 40Продолжительность : 1 ч. 43 м.Вид битрейта : ПеременныйБитрейт : 125 Кбит/секМаксимальный битрейт : 255 Кбит/секКаналы : 2 каналаРасположение каналов : Front: L RЧастота : 48,0 КГцЧастота кадров : 46,875 кадров/сек (1024 spf)Метод сжатия : С потерямиРазмер потока : 92,7 Мбайт (10%)Дата кодирования : UTC 2016-09-15 08:17:56Дата пометки : UTC 2016-09-15 08:18:12

Прочее #1Идентификатор : 2Тип : Object descriptionФормат : SystemИдентификатор кодека : 1Продолжительность : 1 с. 0 мс.Дата кодирования : UTC 2016-09-15 08:18:12Дата пометки : UTC 2016-09-15 08:18:12

Прочее #2Идентификатор : 1Тип : Scene descriptionФормат : System CoreИдентификатор кодека : 2Продолжительность : 1 с. 0 мс.Дата кодирования : UTC 2016-09-15 08:18:12Дата пометки : UTC 2016-09-15 08:18:12


Трекер:  [ 16-Сен-2016 16:30 ]

  

Скачать .torrent

Размер .torrent файла 18 KB


Размер: 893 MB
Хэш (hash) релиза: f92c6b430896fb187df87188de759d875713efbf

Еще никто не оставлял запись к записи скачать торрент [VIDEO] Неудержимые The Expendables . Будь первым!

!Обратная связь