Streamango | Bowling V2 2018 Tri-Fold Brochure PSD Template | Ana Ularu

Скачать через торрент [MULT] Бивис и Батт-Хед делают Рождество Beavis and Butt-Head Do Christmas бесплатно русская версия torrent активатор

Статистика раздачи
Размер:  324 MB   |    Зарегистрирован:  1 год 10 месяцев   |    .torrent скачан:  28 раз   |   
Раздают:  1  
   
загрузка...
 
Автор Сообщение

Galfimbul

avatar Galfimbul


Бивис и Батт-Хед делают Рождество / Beavis and Butt-Head Do Christmas
Год выпуска: 1995
Страна: США
Жанр: мультфильм, комедия
Продолжительность: 00:37:27
Перевод: Профессиональный (многоголосый закадровый) MTV
Режиссер: Майк Джадж / Mike Judge
Описание: Бивис и Батт-Хед имеют честь пригласить Вас на умопомрачительное представление в двух актах с романтической интерлюдией. Рождество - тот праздник, когда исполняются самые заветные желания. В это Рождество желания наших героев исполнились: Бивис, вернувшись после трудового дня, спокойно может посмотреть "порнушку", а Батт-Хед может элегантно сыграть роль Деда Мороза. В компании задорных ребят Вы проведете немало приятных минут и даже вместе скинете с моста в реку ангела-хранителя, спустившегося по случаю торжества на Землю. В эту рождественскую ночь Бивис и Батт-Хед не дадут Вам замерзнуть и согреют Вас теплом своей доброты.***Праздничная программа***
Акт первый: "Бивис и Призраки"
Романтическая интерлюдия: "Письма Санта-Батхеду"
Акт второй: "Ничтожная жизнь"
Качество: DVDRip
Формат: MP4
Видео: MPEG-4 Visual, 480x360 (4:3), 1080 Kbps, 23,976 fps
Аудио: Русский, AAC, 2 ch, 128 Kbps, 44,1 KHz
ОбщееПолное имя : D:\Раздачи\Beavis and Butt-Head Do Christmas (DVDRip) 480x.mp4Формат : MPEG-4Профиль формата : Base Media / Version 2Идентификатор кодека : mp42 (isom/mp42/3gp5)Размер файла : 324 МбайтПродолжительность : 37 м.Режим общего битрейта : ПеременныйОбщий поток : 1211 Кбит/секДата кодирования : UTC 2016-09-12 06:30:55Дата пометки : UTC 2016-09-12 06:30:55

ВидеоИдентификатор : 201Формат : MPEG-4 VisualПрофиль формата : [email protected]Параметр BVOP формата : НетПараметр QPel формата : НетПараметр GMC формата : Без точки переходаПараметр матрицы формата : Default (H.263)Идентификатор кодека : 20Продолжительность : 37 м.Вид битрейта : ПеременныйБитрейт : 1079 Кбит/секМаксимальный битрейт : 2695 Кбит/секШирина : 480 пикселейВысота : 360 пикселейСоотношение сторон : 4:3Режим частоты кадров : ПостоянныйЧастота кадров : 23,976 (24000/1001) кадра/секЦветовое пространство : YUVСубдискретизация насыщенности : 4:2:0Битовая глубина : 8 битТип развёртки : ПрогрессивнаяМетод сжатия : С потерямиБит/(Пиксели*Кадры) : 0.260Размер потока : 289 Мбайт (89%)Библиотека кодирования : Lavc52.30.2Дата кодирования : UTC 2016-09-12 06:30:55Дата пометки : UTC 2016-09-12 06:31:06

АудиоИдентификатор : 101Формат : AACФормат/Информация : Advanced Audio CodecПрофиль формата : LCИдентификатор кодека : 40Продолжительность : 37 м.Вид битрейта : ПеременныйБитрейт : 129 Кбит/секМаксимальный битрейт : 147 Кбит/секКаналы : 2 каналаРасположение каналов : Front: L RЧастота : 44,1 КГцЧастота кадров : 43,066 кадра/сек (1024 spf)Метод сжатия : С потерямиРазмер потока : 34,7 Мбайт (11%)Дата кодирования : UTC 2016-09-12 06:31:03Дата пометки : UTC 2016-09-12 06:31:06

Прочее #1Идентификатор : 2Тип : Object descriptionФормат : SystemИдентификатор кодека : 1Продолжительность : 1 с. 0 мс.Дата кодирования : UTC 2016-09-12 06:31:06Дата пометки : UTC 2016-09-12 06:31:06

Прочее #2Идентификатор : 1Тип : Scene descriptionФормат : System CoreИдентификатор кодека : 2Продолжительность : 1 с. 0 мс.Дата кодирования : UTC 2016-09-12 06:31:06Дата пометки : UTC 2016-09-12 06:31:06


Трекер:  [ 13-Сен-2016 11:00 ]

  

Скачать .torrent

Размер .torrent файла 13 KB


Размер: 324 MB
Хэш (hash) релиза: 6fad55c4cc51a3e352b1182f7dd9b8e51a57ebee

Еще никто не оставлял запись к записи скачать торрент [MULT] Бивис и Батт-Хед делают Рождество Beavis and Butt-Head Do Christmas . Будь первым!

!Обратная связь