Playboy Tv Live Last Semester 2. Bölüm izle | Search Articles | Mr Blandings Builds His Dream House

Скачать через торрент музыку Рубаки Slayers бесплатно без регистрации torrent

Статистика раздачи
Размер:  1.75 GB   |    Зарегистрирован:  1 год 10 месяцев   |    .torrent скачан:  21 раз   |   
Раздают:  1  
   
загрузка...
 
Автор Сообщение

Galfimbul

avatar Galfimbul



<span class="post-font-serif1">Slayers</span>
Год выпуска: 1996-1997 г.
Страна: Япония
Аудио кодек: FLAC
Тип рипа: tracks+.cue
Продолжительность: 04:44:12
Источник: Kenshin
<span class="post-font-sans1">01 Monologue of Lina I
02 Give a reason (REMIX VERSION)
03 Tsuginaru Teki to Tsuginaru Houshuu
04 Taiyou no Niau Basho Kara
05 Onore wo Shinjite Susumu Nomi
06 Kangeisarezaru Hitobito
07 Dare ga Koyou to Lina wa Lina
08 Martina, Sono Yabou to Shuunen
09 Ame no Far away
10 It's Time for Action!
11 Hikaru Me, Hikaru Ha
12 A Man of Cold Blood
13 Aru Ai no Katachi
14 Loneliness (that Nobody knows)
15 Ikai Mokushiroku
16 Why Should I Fear
17 Mubou no Seigram
18 The Evil Eye
19 Kyodai naru Genei no Gotoku
20 Break Out into the Battle
21 Yuuki toiu Na no Kagi wo Te ni - Tatakai no Tobira
22 Jama wa Sasenai
23 Monologue of Lina II</span>
<div class="sp-wrap">
<div class="sp-head folded"><span class="post-font-sans1"><span>log</span></span></div>
<div class="sp-body">

Exact Audio Copy V1.0 beta 3 from 29. August 2011

EAC extraction logfile from 6. September 2016, 22:37

VA / スレイヤーズNEXT SOUND BIBLE I

Used drive : HL-DT-STDVDRAM GH22NS50 Adapter: 3 ID: 1

Read mode : SecureUtilize accurate stream : YesDefeat audio cache : YesMake use of C2 pointers : No

Read offset correction : 667Overread into Lead-In and Lead-Out : NoFill up missing offset samples with silence : YesDelete leading and trailing silent blocks : NoNull samples used in CRC calculations : YesUsed interface : Native Win32 interface for Win NT & 2000Gap handling : Appended to previous track

Used output format : User Defined EncoderSelected bitrate : 1024 kBit/sQuality : HighAdd ID3 tag : NoCommand line compressor : C:\Program Files\Exact Audio Copy\Flac\flac.exeAdditional command line options : -V -8 -T "Genre=%genre%" -T "Artist=%artist%" -T "Title=%title%" -T "Album=%albumtitle%" -T "Date=%year%" -T "Tracknumber=%tracknr%" -T "Comment=%comment%" %source%

TOC of the extracted CD

Track | Start | Length | Start sector | End sector --------------------------------------------------------- 1 | 0:00.00 | 1:16.12 | 0 | 5711 2 | 1:16.12 | 4:47.50 | 5712 | 27286 3 | 6:03.62 | 1:02.18 | 27287 | 31954 4 | 7:06.05 | 2:12.10 | 31955 | 41864 5 | 9:18.15 | 2:08.52 | 41865 | 51516 6 | 11:26.67 | 1:52.10 | 51517 | 59926 7 | 13:19.02 | 3:38.05 | 59927 | 76281 8 | 16:57.07 | 3:31.68 | 76282 | 92174 9 | 20:29.00 | 5:18.50 | 92175 | 116074 10 | 25:47.50 | 4:25.37 | 116075 | 135986 11 | 30:13.12 | 1:50.55 | 135987 | 144291 12 | 32:03.67 | 2:44.25 | 144292 | 156616 13 | 34:48.17 | 1:35.58 | 156617 | 163799 14 | 36:24.00 | 1:22.57 | 163800 | 170006 15 | 37:46.57 | 1:49.00 | 170007 | 178181 16 | 39:35.57 | 2:32.18 | 178182 | 189599 17 | 42:08.00 | 1:26.45 | 189600 | 196094 18 | 43:34.45 | 1:19.17 | 196095 | 202036 19 | 44:53.62 | 1:32.73 | 202037 | 209009 20 | 46:26.60 | 1:31.47 | 209010 | 215881 21 | 47:58.32 | 1:15.55 | 215882 | 221561 22 | 49:14.12 | 4:41.15 | 221562 | 242651 23 | 53:55.27 | 1:28.63 | 242652 | 249314

Track 1

Filename D:\s\01 Monologue of Lina I.wav

Pre-gap length 0:00:02.00

Peak level 100.0 % Extraction speed 0.8 X Track quality 100.0 % Test CRC 5A206E1B Copy CRC 5A206E1B Accurately ripped (confidence 2) [D36E4888] (AR v2) Copy OK

Track 2

Filename D:\s\02 Give a reason (REMIX VERSION).wav

Pre-gap length 0:00:01.00

Peak level 100.0 % Extraction speed 1.1 X Track quality 100.0 % Test CRC D35AFDF3 Copy CRC D35AFDF3 Accurately ripped (confidence 2) [507C8980] (AR v2) Copy OK

Track 3

Filename D:\s\03 次なる敵と次なる報酬.wav

Pre-gap length 0:00:02.20

Peak level 100.0 % Extraction speed 0.8 X Track quality 100.0 % Test CRC 7F9B4671 Copy CRC 7F9B4671 Accurately ripped (confidence 2) [8520E833] (AR v2) Copy OK

Track 4

Filename D:\s\04 太陽の似合う場所から.wav

Pre-gap length 0:00:01.00

Peak level 100.0 % Extraction speed 0.9 X Track quality 99.9 % Test CRC 319FD7D4 Copy CRC 319FD7D4 Accurately ripped (confidence 2) [473B3DC6] (AR v2) Copy OK

Track 5

Filename D:\s\05 己を信じて進むのみ.wav

Pre-gap length 0:00:01.05

Peak level 100.0 % Extraction speed 1.1 X Track quality 100.0 % Test CRC DFBD4114 Copy CRC DFBD4114 Accurately ripped (confidence 2) [3CC43EAD] (AR v2) Copy OK

Track 6

Filename D:\s\06 歓迎されざる人々.wav

Pre-gap length 0:00:01.00

Peak level 95.8 % Extraction speed 1.1 X Track quality 100.0 % Test CRC 17AA3F55 Copy CRC 17AA3F55 Accurately ripped (confidence 2) [8E4A4CBE] (AR v2) Copy OK

Track 7

Filename D:\s\07 誰が来ようとリナはリナ.wav

Pre-gap length 0:00:01.00

Peak level 100.0 % Extraction speed 1.3 X Track quality 100.0 % Test CRC A24E227B Copy CRC A24E227B Accurately ripped (confidence 2) [9BF88801] (AR v2) Copy OK

Track 8

Filename D:\s\08 マルチナ、その野望と執念.wav

Pre-gap length 0:00:01.00

Peak level 98.1 % Extraction speed 1.4 X Track quality 100.0 % Test CRC A46723EE Copy CRC A46723EE Accurately ripped (confidence 2) [A1A0B214] (AR v2) Copy OK

Track 9

Filename D:\s\09 雨の Far away.wav

Pre-gap length 0:00:02.38

Peak level 100.0 % Extraction speed 1.6 X Track quality 100.0 % Test CRC E748B16A Copy CRC E748B16A Accurately ripped (confidence 2) [5E579B22] (AR v2) Copy OK

Track 10

Filename D:\s\10 It's Time for Action!.wav

Pre-gap length 0:00:02.15

Peak level 100.0 % Extraction speed 1.7 X Track quality 100.0 % Test CRC C2971945 Copy CRC C2971945 Accurately ripped (confidence 2) [C7CFEB24] (AR v2) Copy OK

Track 11

Filename D:\s\11 光る眼、光る刃.wav

Pre-gap length 0:00:01.00

Peak level 45.6 % Extraction speed 1.4 X Track quality 100.0 % Test CRC 7C416497 Copy CRC 7C416497 Accurately ripped (confidence 2) [DFB619AA] (AR v2) Copy OK

Track 12

Filename D:\s\12 A Man of Cold Blood.wav

Pre-gap length 0:00:01.00

Peak level 82.5 % Extraction speed 1.4 X Track quality 99.9 % Test CRC B0BA5827 Copy CRC B0BA5827 Accurately ripped (confidence 2) [1FE617DA] (AR v2) Copy OK

Track 13

Filename D:\s\13 ある愛の形.wav

Pre-gap length 0:00:01.00

Peak level 49.0 % Extraction speed 1.5 X Track quality 100.0 % Test CRC 67F30B54 Copy CRC 67F30B54 Accurately ripped (confidence 2) [22F3206A] (AR v2) Copy OK

Track 14

Filename D:\s\14 Loneliness (that Nobody knows).wav

Pre-gap length 0:00:01.00

Peak level 88.0 % Extraction speed 1.4 X Track quality 100.0 % Test CRC AF7F60F0 Copy CRC AF7F60F0 Accurately ripped (confidence 2) [7BC17DA6] (AR v2) Copy OK

Track 15

Filename D:\s\15 異界黙示録.wav

Pre-gap length 0:00:01.00

Peak level 100.0 % Extraction speed 1.6 X Track quality 100.0 % Test CRC FBE574B1 Copy CRC FBE574B1 Accurately ripped (confidence 2) [8F7E9F57] (AR v2) Copy OK

Track 16

Filename D:\s\16 Why Should I Fear.wav

Pre-gap length 0:00:01.12

Peak level 99.6 % Extraction speed 1.7 X Track quality 100.0 % Test CRC AAF1D2C3 Copy CRC AAF1D2C3 Accurately ripped (confidence 2) [082F0310] (AR v2) Copy OK

Track 17

Filename D:\s\17 無貎のセイグラム.wav

Pre-gap length 0:00:01.00

Peak level 100.0 % Extraction speed 1.5 X Track quality 100.0 % Test CRC 51491FA5 Copy CRC 51491FA5 Accurately ripped (confidence 2) [AC712F28] (AR v2) Copy OK

Track 18

Filename D:\s\18 The Evil Eye.wav

Pre-gap length 0:00:01.18

Peak level 79.2 % Extraction speed 1.4 X Track quality 100.0 % Test CRC 49CF33BB Copy CRC 49CF33BB Accurately ripped (confidence 2) [C8B9AB5E] (AR v2) Copy OK

Track 19

Filename D:\s\19 巨大なる幻影の如く.wav

Pre-gap length 0:00:01.00

Peak level 100.0 % Extraction speed 1.2 X Track quality 99.8 % Test CRC 186CD7A4 Copy CRC 186CD7A4 Accurately ripped (confidence 2) [323544E7] (AR v2) Copy OK

Track 20

Filename D:\s\20 Break Out into the Battle.wav

Pre-gap length 0:00:01.00

Peak level 100.0 % Extraction speed 1.2 X Track quality 99.8 % Test CRC D8B2C749 Copy CRC D8B2C749 Accurately ripped (confidence 2) [257CA7B0] (AR v2) Copy OK

Track 21

Filename D:\s\21 勇気という名の鍵を手に−戦いの扉.wav

Pre-gap length 0:00:00.57

Peak level 83.3 % Extraction speed 1.5 X Track quality 100.0 % Test CRC 9DE923A2 Copy CRC 9DE923A2 Accurately ripped (confidence 2) [CCD016CE] (AR v2) Copy OK

Track 22

Filename D:\s\22 邪魔はさせない.wav

Pre-gap length 0:00:01.37

Peak level 100.0 % Extraction speed 1.8 X Track quality 99.9 % Test CRC 100E5425 Copy CRC 100E5425 Accurately ripped (confidence 2) [567A9681] (AR v2) Copy OK

Track 23

Filename D:\s\23 Monologue of Lina II.wav

Pre-gap length 0:00:02.00

Peak level 100.0 % Extraction speed 1.7 X Track quality 100.0 % Test CRC 13E0D90E Copy CRC 13E0D90E Accurately ripped (confidence 2) [D3664146] (AR v2) Copy OK

All tracks accurately ripped

No errors occurred

End of status report

==== Log checksum 5FEC353421742E3DE1C0B37867DCF8EFF53539A02264A72E6752BDC5F55630A1 ====
REM GENRE AnimeREM DATE 1996REM DISCID 5D0CFC17REM COMMENT "ExactAudioCopy v1.0b3"PERFORMER "VA"TITLE "スレイヤーズNEXT SOUND BIBLE I"FILE "01 Monologue of Lina I.wav" WAVE TRACK 01 AUDIO TITLE "Monologue of Lina I" PERFORMER "VA" INDEX 01 00:00:00 TRACK 02 AUDIO TITLE "Give a reason (REMIX VERSION)" PERFORMER "VA" INDEX 00 01:15:12FILE "02 Give a reason (REMIX VERSION).wav" WAVE INDEX 01 00:00:00 TRACK 03 AUDIO TITLE "次なる敵と次なる報酬" PERFORMER "VA" INDEX 00 04:45:30FILE "03 次なる敵と次なる報酬.wav" WAVE INDEX 01 00:00:00 TRACK 04 AUDIO TITLE "太陽の似合う場所から" PERFORMER "VA" INDEX 00 01:01:18FILE "04 太陽の似合う場所から.wav" WAVE INDEX 01 00:00:00 TRACK 05 AUDIO TITLE "己を信じて進むのみ" PERFORMER "VA" INDEX 00 02:11:05FILE "05 己を信じて進むのみ.wav" WAVE INDEX 01 00:00:00 TRACK 06 AUDIO TITLE "歓迎されざる人々" PERFORMER "VA" INDEX 00 02:07:52FILE "06 歓迎されざる人々.wav" WAVE INDEX 01 00:00:00 TRACK 07 AUDIO TITLE "誰が来ようとリナはリナ" PERFORMER "VA" INDEX 00 01:51:10FILE "07 誰が来ようとリナはリナ.wav" WAVE INDEX 01 00:00:00 TRACK 08 AUDIO TITLE "マルチナ、その野望と執念" PERFORMER "VA" INDEX 00 03:37:05FILE "08 マルチナ、その野望と執念.wav" WAVE INDEX 01 00:00:00 TRACK 09 AUDIO TITLE "雨の Far away" PERFORMER "VA" INDEX 00 03:29:30FILE "09 雨の Far away.wav" WAVE INDEX 01 00:00:00 TRACK 10 AUDIO TITLE "It's Time for Action!" PERFORMER "VA" INDEX 00 05:16:35FILE "10 It's Time for Action!.wav" WAVE INDEX 01 00:00:00 TRACK 11 AUDIO TITLE "光る眼、光る刃" PERFORMER "VA" INDEX 00 04:24:37FILE "11 光る眼、光る刃.wav" WAVE INDEX 01 00:00:00 TRACK 12 AUDIO TITLE "A Man of Cold Blood" PERFORMER "VA" INDEX 00 01:49:55FILE "12 A Man of Cold Blood.wav" WAVE INDEX 01 00:00:00 TRACK 13 AUDIO TITLE "ある愛の形" PERFORMER "VA" INDEX 00 02:43:25FILE "13 ある愛の形.wav" WAVE INDEX 01 00:00:00 TRACK 14 AUDIO TITLE "Loneliness (that Nobody knows)" PERFORMER "VA" INDEX 00 01:34:58FILE "14 Loneliness (that Nobody knows).wav" WAVE INDEX 01 00:00:00 TRACK 15 AUDIO TITLE "異界黙示録" PERFORMER "VA" INDEX 00 01:21:57FILE "15 異界黙示録.wav" WAVE INDEX 01 00:00:00 TRACK 16 AUDIO TITLE "Why Should I Fear?" PERFORMER "VA" INDEX 00 01:47:63FILE "16 Why Should I Fear.wav" WAVE INDEX 01 00:00:00 TRACK 17 AUDIO TITLE "無貎のセイグラム" PERFORMER "VA" INDEX 00 02:31:18FILE "17 無貎のセイグラム.wav" WAVE INDEX 01 00:00:00 TRACK 18 AUDIO TITLE "The Evil Eye" PERFORMER "VA" INDEX 00 01:25:27FILE "18 The Evil Eye.wav" WAVE INDEX 01 00:00:00 TRACK 19 AUDIO TITLE "巨大なる幻影の如く" PERFORMER "VA" INDEX 00 01:18:17FILE "19 巨大なる幻影の如く.wav" WAVE INDEX 01 00:00:00 TRACK 20 AUDIO TITLE "Break Out into the Battle" PERFORMER "VA" INDEX 00 01:31:73FILE "20 Break Out into the Battle.wav" WAVE INDEX 01 00:00:00 TRACK 21 AUDIO TITLE "勇気という名の鍵を手に.戦いの扉" PERFORMER "VA" INDEX 00 01:30:65FILE "21 勇気という名の鍵を手に.戦いの扉.wav" WAVE INDEX 01 00:00:00 TRACK 22 AUDIO TITLE "邪魔はさせない" PERFORMER "VA" INDEX 00 01:14:18FILE "22 邪魔はさせない.wav" WAVE INDEX 01 00:00:00 TRACK 23 AUDIO TITLE "Monologue of Lina II" PERFORMER "VA" INDEX 00 04:39:15FILE "23 Monologue of Lina II.wav" WAVE INDEX 01 00:00:00
<span class="post-font-sans1">01 Monologue of Gourry I
02 Give a reason
03 Densetsu no Yuusha-tachi
04 Everyone was Hungry
05 Sore wa Himitsu Desu
06 Twinkle-Twinkle
07 Otome no Inori
08 Between A and B
09 We are…
10 Day after Day
11 Aozora no Shita de
12 Please, Show me the Way
13 Ame no Ato ni wa Hana ga Saku
14 Confusion
15 Xelloss, Shin no Sugata
16 Next door to…
17 Jama wa Sasenai [live rock-on]
18 Monologue of Gourry II
19 Give a reason [TV Size VERSION]
20 Otome no Inori [KARAOKE with Lina]
21 Otome no Inori [KARAOKE with Amelia]
22 Jama wa Sasenai [TV Size VERSION]
23 Give a reason [GIGA-MIX VERSION]</span>
<div class="sp-wrap">
<div class="sp-head folded"><span class="post-font-sans1"><span>log</span></span></div>
<div class="sp-body">

Exact Audio Copy V1.0 beta 3 from 29. August 2011

EAC extraction logfile from 7. September 2016, 20:17

VA / スレイヤーズNEXT SOUND BIBLE II

Used drive : HL-DT-STDVDRAM GH22NS50 Adapter: 3 ID: 1

Read mode : SecureUtilize accurate stream : YesDefeat audio cache : YesMake use of C2 pointers : No

Read offset correction : 667Overread into Lead-In and Lead-Out : NoFill up missing offset samples with silence : YesDelete leading and trailing silent blocks : NoNull samples used in CRC calculations : YesUsed interface : Native Win32 interface for Win NT & 2000Gap handling : Appended to previous track

Used output format : User Defined EncoderSelected bitrate : 1024 kBit/sQuality : HighAdd ID3 tag : NoCommand line compressor : C:\Program Files\Exact Audio Copy\Flac\flac.exeAdditional command line options : -V -8 -T "Genre=%genre%" -T "Artist=%artist%" -T "Title=%title%" -T "Album=%albumtitle%" -T "Date=%year%" -T "Tracknumber=%tracknr%" -T "Comment=%comment%" %source%

TOC of the extracted CD

Track | Start | Length | Start sector | End sector --------------------------------------------------------- 1 | 0:00.00 | 0:55.70 | 0 | 4194 2 | 0:55.70 | 4:27.37 | 4195 | 24256 3 | 5:23.32 | 1:17.23 | 24257 | 30054 4 | 6:40.55 | 1:35.22 | 30055 | 37201 5 | 8:16.02 | 1:13.28 | 37202 | 42704 6 | 9:29.30 | 1:19.00 | 42705 | 48629 7 | 10:48.30 | 2:23.40 | 48630 | 59394 8 | 13:11.70 | 0:10.72 | 59395 | 60216 9 | 13:22.67 | 5:07.55 | 60217 | 83296 10 | 18:30.47 | 2:53.23 | 83297 | 96294 11 | 21:23.70 | 1:47.05 | 96295 | 104324 12 | 23:11.00 | 3:09.00 | 104325 | 118499 13 | 26:20.00 | 1:27.50 | 118500 | 125074 14 | 27:47.50 | 3:14.25 | 125075 | 139649 15 | 31:02.00 | 1:18.40 | 139650 | 145539 16 | 32:20.40 | 1:31.32 | 145540 | 152396 17 | 33:51.72 | 4:41.70 | 152397 | 173541 18 | 38:33.67 | 1:22.58 | 173542 | 179749 19 | 39:56.50 | 1:37.32 | 179750 | 187056 20 | 41:34.07 | 2:23.28 | 187057 | 197809 21 | 43:57.35 | 2:23.35 | 197810 | 208569 22 | 46:20.70 | 1:22.52 | 208570 | 214771 23 | 47:43.47 | 5:27.33 | 214772 | 239329

Track 1

Filename D:\s\01 Monologue of Gourry I.wav

Pre-gap length 0:00:02.00

Peak level 87.3 % Extraction speed 0.7 X Track quality 100.0 % Test CRC 1921208B Copy CRC 1921208B Cannot be verified as accurate (confidence 2) [059F7A7B], AccurateRip returned [8C04E8AE] (AR v2) Copy OK

Track 2

Filename D:\s\02 Give a reason.wav

Pre-gap length 0:00:00.38

Peak level 100.0 % Extraction speed 1.1 X Track quality 100.0 % Test CRC 1D7315EB Copy CRC 1D7315EB Cannot be verified as accurate (confidence 2) [954273DD], AccurateRip returned [B4BD68ED] (AR v2) Copy OK

Track 3

Filename D:\s\03 伝説の勇者達.wav

Pre-gap length 0:00:02.12

Peak level 100.0 % Extraction speed 0.8 X Track quality 100.0 % Test CRC 096756A9 Copy CRC 096756A9 Cannot be verified as accurate (confidence 2) [0E0E81B6], AccurateRip returned [E5F5788D] (AR v2) Copy OK

Track 4

Filename D:\s\04 Everyone was Hungry.wav

Pre-gap length 0:00:01.00

Peak level 92.0 % Extraction speed 0.7 X Track quality 99.8 % Test CRC D20FFF3D Copy CRC D20FFF3D Cannot be verified as accurate (confidence 2) [A571D1E7], AccurateRip returned [6BA07239] (AR v2) Copy OK

Track 5

Filename D:\s\05 それは秘密です.wav

Pre-gap length 0:00:01.00

Peak level 73.6 % Extraction speed 0.7 X Track quality 99.8 % Test CRC DF6BFF5D Copy CRC DF6BFF5D Cannot be verified as accurate (confidence 2) [D6C4F41D], AccurateRip returned [343DEDF4] (AR v2) Copy OK

Track 6

Filename D:\s\06 Twinkle-Twinkle.wav

Pre-gap length 0:00:01.03

Peak level 74.9 % Extraction speed 0.7 X Track quality 99.8 % Test CRC 77CF89A0 Copy CRC 77CF89A0 Cannot be verified as accurate (confidence 2) [4FF42B9E], AccurateRip returned [232F2A07] (AR v2) Copy OK

Track 7

Filename D:\s\07 乙女の祈り.wav

Pre-gap length 0:00:02.03

Peak level 100.0 % Extraction speed 1.2 X Track quality 100.0 % Test CRC 63B1595B Copy CRC 63B1595B Cannot be verified as accurate (confidence 2) [C664B881], AccurateRip returned [A82A2BD8] (AR v2) Copy OK

Track 8

Filename D:\s\08 Between A and B.wav

Pre-gap length 0:00:02.08

Peak level 74.5 % Extraction speed 0.1 X Track quality 99.0 % Test CRC E765413B Copy CRC E765413B Cannot be verified as accurate (confidence 2) [21F8FBCF], AccurateRip returned [A96FB921] (AR v2) Copy OK

Track 9

Filename D:\s\09 We are….wav

Pre-gap length 0:00:02.02

Peak level 100.0 % Extraction speed 1.3 X Track quality 99.9 % Test CRC 5EEAE4FE Copy CRC 5EEAE4FE Cannot be verified as accurate (confidence 2) [785571F8], AccurateRip returned [C6650F73] (AR v2) Copy OK

Track 10

Filename D:\s\10 Day after Day.wav

Pre-gap length 0:00:02.15

Peak level 77.8 % Extraction speed 1.2 X Track quality 99.9 % Test CRC D8AEB8EA Copy CRC D8AEB8EA Cannot be verified as accurate (confidence 2) [B439C170], AccurateRip returned [21EEB359] (AR v2) Copy OK

Track 11

Filename D:\s\11 青空の下で.wav

Pre-gap length 0:00:01.00

Peak level 71.4 % Extraction speed 1.2 X Track quality 100.0 % Test CRC 43ED2394 Copy CRC 43ED2394 Cannot be verified as accurate (confidence 2) [A40CAE83], AccurateRip returned [F5448946] (AR v2) Copy OK

Track 12

Filename D:\s\12 Please,Show me the Way.wav

Pre-gap length 0:00:01.00

Peak level 71.1 % Extraction speed 1.5 X Track quality 100.0 % Test CRC EC799C28 Copy CRC EC799C28 Cannot be verified as accurate (confidence 2) [929D4650], AccurateRip returned [B009CC1D] (AR v2) Copy OK

Track 13

Filename D:\s\13 雨の後には花が咲く.wav

Pre-gap length 0:00:01.03

Peak level 66.4 % Extraction speed 1.3 X Track quality 100.0 % Test CRC D52FECE1 Copy CRC D52FECE1 Cannot be verified as accurate (confidence 2) [1CA040C2], AccurateRip returned [BACD7322] (AR v2) Copy OK

Track 14

Filename D:\s\14 Confusion.wav

Pre-gap length 0:00:01.05

Peak level 81.4 % Extraction speed 1.6 X Track quality 100.0 % Test CRC CA89D14A Copy CRC CA89D14A Cannot be verified as accurate (confidence 2) [22A4D566], AccurateRip returned [0F77283E] (AR v2) Copy OK

Track 15

Filename D:\s\15 ゼロス、真の姿.wav

Pre-gap length 0:00:01.03

Peak level 100.0 % Extraction speed 1.3 X Track quality 100.0 % Test CRC 36951FA1 Copy CRC 36951FA1 Cannot be verified as accurate (confidence 2) [72E68A1E], AccurateRip returned [F9E160D3] (AR v2) Copy OK

Track 16

Filename D:\s\16 Next door to….wav

Pre-gap length 0:00:01.05

Peak level 76.5 % Extraction speed 1.4 X Track quality 100.0 % Test CRC BE3E672B Copy CRC BE3E672B Cannot be verified as accurate (confidence 2) [88AEF298], AccurateRip returned [D5F19203] (AR v2) Copy OK

Track 17

Filename D:\s\17 邪魔はさせない [live rock-on].wav

Pre-gap length 0:00:01.00

Peak level 100.0 % Extraction speed 1.8 X Track quality 100.0 % Test CRC 6F38B6DA Copy CRC 6F38B6DA Cannot be verified as accurate (confidence 2) [D1CD0DC2], AccurateRip returned [D8EFA35B] (AR v2) Copy OK

Track 18

Filename D:\s\18 Monologue of Gourry II.wav

Pre-gap length 0:00:02.22

Peak level 85.1 % Extraction speed 1.5 X Track quality 100.0 % Test CRC E9811DF2 Copy CRC E9811DF2 Cannot be verified as accurate (confidence 2) [1FDEB61A], AccurateRip returned [DDC229AC] (AR v2) Copy OK

Track 19

Filename D:\s\19 Give a reason [TV Size VERSION].wav

Pre-gap length 0:00:03.40

Peak level 100.0 % Extraction speed 1.6 X Track quality 100.0 % Test CRC B0C14590 Copy CRC B0C14590 Cannot be verified as accurate (confidence 2) [430D6F03], AccurateRip returned [97ED2458] (AR v2) Copy OK

Track 20

Filename D:\s\20 乙女の祈り [KARAOKE with Lina].wav

Pre-gap length 0:00:02.07

Peak level 100.0 % Extraction speed 1.7 X Track quality 100.0 % Test CRC 5DDF0991 Copy CRC 5DDF0991 Cannot be verified as accurate (confidence 2) [814CC3C5], AccurateRip returned [D27D7730] (AR v2) Copy OK

Track 21

Filename D:\s\21 乙女の祈り [KARAOKE with Ameria].wav

Pre-gap length 0:00:02.10

Peak level 100.0 % Extraction speed 1.8 X Track quality 100.0 % Test CRC 31737354 Copy CRC 31737354 Cannot be verified as accurate (confidence 2) [8B09C8C4], AccurateRip returned [4C23F929] (AR v2) Copy OK

Track 22

Filename D:\s\22 邪魔はさせない [TV Size VERSION].wav

Pre-gap length 0:00:02.15

Peak level 100.0 % Extraction speed 1.5 X Track quality 100.0 % Test CRC AB77BCFF Copy CRC AB77BCFF Cannot be verified as accurate (confidence 2) [122E7772], AccurateRip returned [191CCEBA] (AR v2) Copy OK

Track 23

Filename D:\s\23 Give a reason [GIGA-MIX VERSION].wav

Pre-gap length 0:00:04.12

Peak level 100.0 % Extraction speed 2.1 X Track quality 100.0 % Test CRC 2B470CBA Copy CRC 2B470CBA Cannot be verified as accurate (confidence 2) [01776D2E], AccurateRip returned [2837D81B] (AR v2) Copy OK

No tracks could be verified as accurateYou may have a different pressing from the one(s) in the database

No errors occurred

End of status report

==== Log checksum 2ECCAF404D7D9307C9EE0E7C90E0D497814590F0F75E05AA1F282304A30F1E61 ====
REM GENRE AnimeREM DATE 1996REM DISCID 530C7717REM COMMENT "ExactAudioCopy v1.0b3"PERFORMER "VA"TITLE "スレイヤーズNEXT SOUND BIBLE II"FILE "01 Monologue of Gourry I.wav" WAVE TRACK 01 AUDIO TITLE "Monologue of Gourry I" PERFORMER "VA" INDEX 01 00:00:00 TRACK 02 AUDIO TITLE "Give a reason" PERFORMER "VA" INDEX 00 00:55:32FILE "02 Give a reason.wav" WAVE INDEX 01 00:00:00 TRACK 03 AUDIO TITLE "伝説の勇者達" PERFORMER "VA" INDEX 00 04:25:25FILE "03 伝説の勇者達.wav" WAVE INDEX 01 00:00:00 TRACK 04 AUDIO TITLE "Everyone was Hungry" PERFORMER "VA" INDEX 00 01:16:23FILE "04 Everyone was Hungry.wav" WAVE INDEX 01 00:00:00 TRACK 05 AUDIO TITLE "それは秘密です" PERFORMER "VA" INDEX 00 01:34:22FILE "05 それは秘密です.wav" WAVE INDEX 01 00:00:00 TRACK 06 AUDIO TITLE "Twinkle-Twinkle" PERFORMER "VA" INDEX 00 01:12:25FILE "06 Twinkle-Twinkle.wav" WAVE INDEX 01 00:00:00 TRACK 07 AUDIO TITLE "乙女の祈り" PERFORMER "VA" INDEX 00 01:16:72FILE "07 乙女の祈り.wav" WAVE INDEX 01 00:00:00 TRACK 08 AUDIO TITLE "Between A and B" PERFORMER "VA" INDEX 00 02:21:32FILE "08 Between A and B.wav" WAVE INDEX 01 00:00:00 TRACK 09 AUDIO TITLE "We are…" PERFORMER "VA" INDEX 00 00:08:70FILE "09 We are….wav" WAVE INDEX 01 00:00:00 TRACK 10 AUDIO TITLE "Day after Day" PERFORMER "VA" INDEX 00 05:05:40FILE "10 Day after Day.wav" WAVE INDEX 01 00:00:00 TRACK 11 AUDIO TITLE "青空の下で" PERFORMER "VA" INDEX 00 02:52:23FILE "11 青空の下で.wav" WAVE INDEX 01 00:00:00 TRACK 12 AUDIO TITLE "Please,Show me the Way" PERFORMER "VA" INDEX 00 01:46:05FILE "12 Please,Show me the Way.wav" WAVE INDEX 01 00:00:00 TRACK 13 AUDIO TITLE "雨の後には花が咲く" PERFORMER "VA" INDEX 00 03:07:72FILE "13 雨の後には花が咲く.wav" WAVE INDEX 01 00:00:00 TRACK 14 AUDIO TITLE "Confusion" PERFORMER "VA" INDEX 00 01:26:45FILE "14 Confusion.wav" WAVE INDEX 01 00:00:00 TRACK 15 AUDIO TITLE "ゼロス、真の姿" PERFORMER "VA" INDEX 00 03:13:22FILE "15 ゼロス、真の姿.wav" WAVE INDEX 01 00:00:00 TRACK 16 AUDIO TITLE "Next door to…" PERFORMER "VA" INDEX 00 01:17:35FILE "16 Next door to….wav" WAVE INDEX 01 00:00:00 TRACK 17 AUDIO TITLE "邪魔はさせない [live rock-on]" PERFORMER "VA" INDEX 00 01:30:32FILE "17 邪魔はさせない [live rock-on].wav" WAVE INDEX 01 00:00:00 TRACK 18 AUDIO TITLE "Monologue of Gourry II" PERFORMER "VA" INDEX 00 04:39:48FILE "18 Monologue of Gourry II.wav" WAVE INDEX 01 00:00:00 TRACK 19 AUDIO TITLE "Give a reason <TV Size VERSION>" PERFORMER "VA" INDEX 00 01:19:18FILE "19 Give a reason [TV Size VERSION].wav" WAVE INDEX 01 00:00:00 TRACK 20 AUDIO TITLE "乙女の祈り <KARAOKE with Lina>" PERFORMER "VA" INDEX 00 01:35:25FILE "20 乙女の祈り [KARAOKE with Lina].wav" WAVE INDEX 01 00:00:00 TRACK 21 AUDIO TITLE "乙女の祈り <KARAOKE with Ameria>" PERFORMER "VA" INDEX 00 02:21:18FILE "21 乙女の祈り [KARAOKE with Ameria].wav" WAVE INDEX 01 00:00:00 TRACK 22 AUDIO TITLE "邪魔はさせない <TV Size VERSION>" PERFORMER "VA" INDEX 00 02:21:20FILE "22 邪魔はさせない [TV Size VERSION].wav" WAVE INDEX 01 00:00:00 TRACK 23 AUDIO TITLE "Give a reason <GIGA-MIX VERSION>" PERFORMER "VA" INDEX 00 01:18:40FILE "23 Give a reason [GIGA-MIX VERSION].wav" WAVE INDEX 01 00:00:00
</div>
</div>
<span class="post-font-sans1">01 Uso no nai Game - SET ME FREE
02 alone
03 Astral Side kara no Shoutaijou
04 Maboroshi no Shiryou Toshi
05 Tokimeki wa Hisoyaka ni
06 Shizukana Ketsui wo Mune ni Shite
07 Hametsu e no Prelude
08 Soko ni Aru Mono
09 Utsukushiki Horobi
10 Hellmaster Fibrizo
11 Chiri Iku Inochi, Nokosareta Inochi
12 Yami, Mu, Arui wa Konton
13 Lord of Nightmare
14 ''Sekai'' Yori mo Mamoritai Hito
15 Tomerarenai Omoi
16 Futari
17 Arashi no Ato ni wa Taiyou ga
18 Sorezore no Shuppatsu
19 Secret ~Dareka no Message~
20 BRAVE SOULS ~give a reason</span>
<div class="sp-wrap">
<div class="sp-head folded"><span class="post-font-sans1"><span>log</span></span></div>
<div class="sp-body">

Exact Audio Copy V1.0 beta 3 from 29. August 2011

EAC extraction logfile from 7. September 2016, 23:07

VA / スレイヤーズNEXT SOUND BIBLE III

Used drive : HL-DT-STDVDRAM GH22NS50 Adapter: 3 ID: 1

Read mode : SecureUtilize accurate stream : YesDefeat audio cache : YesMake use of C2 pointers : No

Read offset correction : 667Overread into Lead-In and Lead-Out : NoFill up missing offset samples with silence : YesDelete leading and trailing silent blocks : NoNull samples used in CRC calculations : YesUsed interface : Native Win32 interface for Win NT & 2000Gap handling : Appended to previous track

Used output format : User Defined EncoderSelected bitrate : 1024 kBit/sQuality : HighAdd ID3 tag : NoCommand line compressor : C:\Program Files\Exact Audio Copy\Flac\flac.exeAdditional command line options : -V -8 -T "Genre=%genre%" -T "Artist=%artist%" -T "Title=%title%" -T "Album=%albumtitle%" -T "Date=%year%" -T "Tracknumber=%tracknr%" -T "Comment=%comment%" %source%

TOC of the extracted CD

Track | Start | Length | Start sector | End sector --------------------------------------------------------- 1 | 0:00.00 | 5:55.20 | 0 | 26644 2 | 5:55.20 | 5:32.67 | 26645 | 51611 3 | 11:28.12 | 1:40.43 | 51612 | 59154 4 | 13:08.55 | 1:47.42 | 59155 | 67221 5 | 14:56.22 | 0:46.08 | 67222 | 70679 6 | 15:42.30 | 2:30.57 | 70680 | 81986 7 | 18:13.12 | 1:32.05 | 81987 | 88891 8 | 19:45.17 | 2:09.08 | 88892 | 98574 9 | 21:54.25 | 2:18.52 | 98575 | 108976 10 | 24:13.02 | 3:11.53 | 108977 | 123354 11 | 27:24.55 | 3:05.62 | 123355 | 137291 12 | 30:30.42 | 2:54.70 | 137292 | 150411 13 | 33:25.37 | 3:16.53 | 150412 | 165164 14 | 36:42.15 | 2:54.67 | 165165 | 178281 15 | 39:37.07 | 2:40.10 | 178282 | 190291 16 | 42:17.17 | 2:34.73 | 190292 | 201914 17 | 44:52.15 | 1:15.47 | 201915 | 207586 18 | 46:07.62 | 2:23.55 | 207587 | 218366 19 | 48:31.42 | 4:58.63 | 218367 | 240779 20 | 53:30.30 | 6:52.57 | 240780 | 271736

Track 1

Filename D:\s\01 嘘の無いゲーム-SET ME FREE.wav

Pre-gap length 0:00:02.00

Peak level 100.0 % Extraction speed 1.1 X Track quality 100.0 % Test CRC A88DFF6D Copy CRC A88DFF6D Accurately ripped (confidence 6) [D0ABF43F] (AR v2) Copy OK

Track 2

Filename D:\s\02 alone.wav

Pre-gap length 0:00:02.03

Peak level 100.0 % Extraction speed 1.2 X Track quality 100.0 % Test CRC D9247A21 Copy CRC D9247A21 Accurately ripped (confidence 6) [94FE52D3] (AR v2) Copy OK

Track 3

Filename D:\s\03 精神世界面からの招待状.wav

Pre-gap length 0:00:03.15

Peak level 97.7 % Extraction speed 0.8 X Track quality 99.8 % Test CRC 76251EB1 Copy CRC 76251EB1 Accurately ripped (confidence 6) [E8BE3F83] (AR v2) Copy OK

Track 4

Filename D:\s\04 幻の死霊都市.wav

Pre-gap length 0:00:02.00

Peak level 74.5 % Extraction speed 0.9 X Track quality 99.9 % Test CRC 09C866C2 Copy CRC 09C866C2 Accurately ripped (confidence 6) [7631E15A] (AR v2) Copy OK

Track 5

Filename D:\s\05 ときめきは密やかに.wav

Pre-gap length 0:00:02.00

Peak level 80.2 % Extraction speed 0.8 X Track quality 100.0 % Test CRC 8202A0DF Copy CRC 8202A0DF Accurately ripped (confidence 6) [5EA14C72] (AR v2) Copy OK

Track 6

Filename D:\s\06 静かな決意を胸にして.wav

Pre-gap length 0:00:02.03

Peak level 100.0 % Extraction speed 1.3 X Track quality 100.0 % Test CRC D741236C Copy CRC D741236C Accurately ripped (confidence 6) [0D68F61D] (AR v2) Copy OK

Track 7

Filename D:\s\07 破滅へのプレリュード.wav

Pre-gap length 0:00:02.00

Peak level 100.0 % Extraction speed 1.2 X Track quality 100.0 % Test CRC F3C0C1E9 Copy CRC F3C0C1E9 Accurately ripped (confidence 6) [8BB7C67D] (AR v2) Copy OK

Track 8

Filename D:\s\08 そこにあるもの.wav

Pre-gap length 0:00:02.00

Peak level 100.0 % Extraction speed 1.0 X Track quality 99.9 % Test CRC 4539A2E0 Copy CRC 4539A2E0 Accurately ripped (confidence 6) [A2650F50] (AR v2) Copy OK

Track 9

Filename D:\s\09 美しき滅び.wav

Pre-gap length 0:00:02.00

Peak level 100.0 % Extraction speed 1.3 X Track quality 100.0 % Test CRC 5C449A1F Copy CRC 5C449A1F Accurately ripped (confidence 6) [0BA0CBDB] (AR v2) Copy OK

Track 10

Filename D:\s\10 冥王フィブリゾ.wav

Pre-gap length 0:00:02.00

Peak level 100.0 % Extraction speed 1.5 X Track quality 100.0 % Test CRC B7F80169 Copy CRC B7F80169 Accurately ripped (confidence 6) [963A4AE7] (AR v2) Copy OK

Track 11

Filename D:\s\11 散り行く命、残された命.wav

Pre-gap length 0:00:02.00

Peak level 100.0 % Extraction speed 1.5 X Track quality 100.0 % Test CRC 418A2323 Copy CRC 418A2323 Accurately ripped (confidence 6) [705989E9] (AR v2) Copy OK

Track 12

Filename D:\s\12 闇、無、あるいは混沌.wav

Pre-gap length 0:00:02.00

Peak level 100.0 % Extraction speed 1.3 X Track quality 99.9 % Test CRC CE78E644 Copy CRC CE78E644 Accurately ripped (confidence 6) [45527756] (AR v2) Copy OK

Track 13

Filename D:\s\13 金色の魔王.wav

Pre-gap length 0:00:02.00

Peak level 100.0 % Extraction speed 1.7 X Track quality 100.0 % Test CRC D8664399 Copy CRC D8664399 Accurately ripped (confidence 6) [D0431F61] (AR v2) Copy OK

Track 14

Filename D:\s\14 ''世界''よりも守りたい人.wav

Pre-gap length 0:00:02.10

Peak level 89.0 % Extraction speed 1.7 X Track quality 100.0 % Test CRC 0679AFA7 Copy CRC 0679AFA7 Accurately ripped (confidence 6) [F74E36F0] (AR v2) Copy OK

Track 15

Filename D:\s\15 とめられない想い.wav

Pre-gap length 0:00:02.35

Peak level 100.0 % Extraction speed 1.7 X Track quality 100.0 % Test CRC 4563071F Copy CRC 4563071F Accurately ripped (confidence 6) [022CF1BD] (AR v2) Copy OK

Track 16

Filename D:\s\16 二人.wav

Pre-gap length 0:00:02.30

Peak level 97.7 % Extraction speed 1.7 X Track quality 100.0 % Test CRC 6F66EFE9 Copy CRC 6F66EFE9 Accurately ripped (confidence 6) [47F3516C] (AR v2) Copy OK

Track 17

Filename D:\s\17 嵐の後には太陽が.wav

Pre-gap length 0:00:02.00

Peak level 93.3 % Extraction speed 1.4 X Track quality 100.0 % Test CRC 780B2E11 Copy CRC 780B2E11 Accurately ripped (confidence 6) [705D7B36] (AR v2) Copy OK

Track 18

Filename D:\s\18 それぞれの出発.wav

Pre-gap length 0:00:02.00

Peak level 100.0 % Extraction speed 1.4 X Track quality 99.9 % Test CRC 79EE528E Copy CRC 79EE528E Accurately ripped (confidence 6) [419B0FB5] (AR v2) Copy OK

Track 19

Filename D:\s\19 Secret 〜誰かのメッセージ〜.wav

Pre-gap length 0:00:03.00

Peak level 100.0 % Extraction speed 2.1 X Track quality 100.0 % Test CRC 559171BA Copy CRC 559171BA Accurately ripped (confidence 6) [8B88FCA3] (AR v2) Copy OK

Track 20

Filename D:\s\20 BRAVE SOULS 〜give a reason.wav

Pre-gap length 0:00:04.00

Peak level 100.0 % Extraction speed 2.3 X Track quality 100.0 % Test CRC A8FB2987 Copy CRC A8FB2987 Accurately ripped (confidence 6) [C3587B56] (AR v2) Copy OK

All tracks accurately ripped

No errors occurred

End of status report

==== Log checksum 0CCE12AF060C06E4EF642B003FF1ECAC6FF951A91DF3F13B29B9E36DAF89FAC9 ====
REM GENRE AnimeREM DATE 1997REM DISCID 310E2714REM COMMENT "ExactAudioCopy v1.0b3"PERFORMER "VA"TITLE "スレイヤーズNEXT SOUND BIBLE III"FILE "01 嘘の無いゲーム-SET ME FREE.wav" WAVE TRACK 01 AUDIO TITLE "嘘の無いゲーム-SET ME FREE" PERFORMER "VA" INDEX 01 00:00:00 TRACK 02 AUDIO TITLE "alone" PERFORMER "VA" INDEX 00 05:53:17FILE "02 alone.wav" WAVE INDEX 01 00:00:00 TRACK 03 AUDIO TITLE "精神世界面からの招待状" PERFORMER "VA" INDEX 00 05:29:52FILE "03 精神世界面からの招待状.wav" WAVE INDEX 01 00:00:00 TRACK 04 AUDIO TITLE "幻の死霊都市" PERFORMER "VA" INDEX 00 01:38:43FILE "04 幻の死霊都市.wav" WAVE INDEX 01 00:00:00 TRACK 05 AUDIO TITLE "ときめきは密やかに" PERFORMER "VA" INDEX 00 01:45:42FILE "05 ときめきは密やかに.wav" WAVE INDEX 01 00:00:00 TRACK 06 AUDIO TITLE "静かな決意を胸にして" PERFORMER "VA" INDEX 00 00:44:05FILE "06 静かな決意を胸にして.wav" WAVE INDEX 01 00:00:00 TRACK 07 AUDIO TITLE "破滅へのプレリュード" PERFORMER "VA" INDEX 00 02:28:57FILE "07 破滅へのプレリュード.wav" WAVE INDEX 01 00:00:00 TRACK 08 AUDIO TITLE "そこにあるもの" PERFORMER "VA" INDEX 00 01:30:05FILE "08 そこにあるもの.wav" WAVE INDEX 01 00:00:00 TRACK 09 AUDIO TITLE "美しき滅び" PERFORMER "VA" INDEX 00 02:07:08FILE "09 美しき滅び.wav" WAVE INDEX 01 00:00:00 TRACK 10 AUDIO TITLE "冥王フィブリゾ" PERFORMER "VA" INDEX 00 02:16:52FILE "10 冥王フィブリゾ.wav" WAVE INDEX 01 00:00:00 TRACK 11 AUDIO TITLE "散り行く命、残された命" PERFORMER "VA" INDEX 00 03:09:53FILE "11 散り行く命、残された命.wav" WAVE INDEX 01 00:00:00 TRACK 12 AUDIO TITLE "闇、無、あるいは混沌" PERFORMER "VA" INDEX 00 03:03:62FILE "12 闇、無、あるいは混沌.wav" WAVE INDEX 01 00:00:00 TRACK 13 AUDIO TITLE "金色の魔王" PERFORMER "VA" INDEX 00 02:52:70FILE "13 金色の魔王.wav" WAVE INDEX 01 00:00:00 TRACK 14 AUDIO TITLE "'世界'よりも守りたい人" PERFORMER "VA" INDEX 00 03:14:43FILE "14 ''世界''よりも守りたい人.wav" WAVE INDEX 01 00:00:00 TRACK 15 AUDIO TITLE "とめられない想い" PERFORMER "VA" INDEX 00 02:52:32FILE "15 とめられない想い.wav" WAVE INDEX 01 00:00:00 TRACK 16 AUDIO TITLE "二人" PERFORMER "VA" INDEX 00 02:37:55FILE "16 二人.wav" WAVE INDEX 01 00:00:00 TRACK 17 AUDIO TITLE "嵐の後には太陽が" PERFORMER "VA" INDEX 00 02:32:73FILE "17 嵐の後には太陽が.wav" WAVE INDEX 01 00:00:00 TRACK 18 AUDIO TITLE "それぞれの出発" PERFORMER "VA" INDEX 00 01:13:47FILE "18 それぞれの出発.wav" WAVE INDEX 01 00:00:00 TRACK 19 AUDIO TITLE "Secret .誰かのメッセージ." PERFORMER "VA" INDEX 00 02:20:55FILE "19 Secret .誰かのメッセージ..wav" WAVE INDEX 01 00:00:00 TRACK 20 AUDIO TITLE "BRAVE SOULS .give a reason" PERFORMER "VA" INDEX 00 04:54:63FILE "20 BRAVE SOULS .give a reason.wav" WAVE INDEX 01 00:00:00
</div>
</div>
<span class="post-font-sans1">01 TAKE YOUR COURAGE
02 Breeze
03 BUT BUT BUT
04 Stand Up!
05 more than words
06 EXIT -RUNNING
07 WARU -Bad Blood-
08 somewhere
09 SO IN THE WORLD
10 don't be discouraged</span>
<div class="sp-wrap">
<div class="sp-head folded"><span class="post-font-sans1"><span>log</span></span></div>
<div class="sp-body">

Exact Audio Copy V1.0 beta 3 from 29. August 2011

EAC extraction logfile from 8. September 2016, 3:29

VA / スレイヤーズ TRY TREASURY☆VOX

Used drive : HL-DT-STDVDRAM GH22NS50 Adapter: 3 ID: 1

Read mode : SecureUtilize accurate stream : YesDefeat audio cache : YesMake use of C2 pointers : No

Read offset correction : 667Overread into Lead-In and Lead-Out : NoFill up missing offset samples with silence : YesDelete leading and trailing silent blocks : NoNull samples used in CRC calculations : YesUsed interface : Native Win32 interface for Win NT & 2000Gap handling : Appended to previous track

Used output format : User Defined EncoderSelected bitrate : 1024 kBit/sQuality : HighAdd ID3 tag : NoCommand line compressor : C:\Program Files\Exact Audio Copy\Flac\flac.exeAdditional command line options : -V -8 -T "Genre=%genre%" -T "Artist=%artist%" -T "Title=%title%" -T "Album=%albumtitle%" -T "Date=%year%" -T "Tracknumber=%tracknr%" -T "Comment=%comment%" %source%

TOC of the extracted CD

Track | Start | Length | Start sector | End sector --------------------------------------------------------- 1 | 0:00.00 | 4:35.67 | 0 | 20691 2 | 4:35.67 | 4:26.35 | 20692 | 40676 3 | 9:02.27 | 4:44.38 | 40677 | 62014 4 | 13:46.65 | 4:42.40 | 62015 | 83204 5 | 18:29.30 | 6:04.40 | 83205 | 110544 6 | 24:33.70 | 4:22.70 | 110545 | 130264 7 | 28:56.65 | 4:13.55 | 130265 | 149294 8 | 33:10.45 | 3:48.22 | 149295 | 166416 9 | 36:58.67 | 4:30.40 | 166417 | 186706 10 | 41:29.32 | 4:11.13 | 186707 | 205544

Track 1

Filename D:\s\01 TAKE YOUR COURAGE.wav

Pre-gap length 0:00:02.00

Peak level 100.0 % Extraction speed 1.1 X Track quality 99.9 % Test CRC C6E955C2 Copy CRC C6E955C2 Accurately ripped (confidence 2) [FBE70180] (AR v2) Copy OK

Track 2

Filename D:\s\02 Breeze.wav

Pre-gap length 0:00:02.07

Peak level 100.0 % Extraction speed 1.3 X Track quality 100.0 % Test CRC E1E1FCC3 Copy CRC E1E1FCC3 Accurately ripped (confidence 2) [55374DDF] (AR v2) Copy OK

Track 3

Filename D:\s\03 BUT BUT BUT.wav

Pre-gap length 0:00:02.12

Peak level 100.0 % Extraction speed 1.3 X Track quality 99.9 % Test CRC 8346832E Copy CRC 8346832E Accurately ripped (confidence 3) [497EEB4E] (AR v2) Copy OK

Track 4

Filename D:\s\04 Stand Up!.wav

Pre-gap length 0:00:02.00

Peak level 100.0 % Extraction speed 1.5 X Track quality 99.9 % Test CRC 96558ED6 Copy CRC 96558ED6 Accurately ripped (confidence 3) [C545A150] (AR v2) Copy OK

Track 5

Filename D:\s\05 more than words.wav

Pre-gap length 0:00:02.00

Peak level 100.0 % Extraction speed 1.7 X Track quality 99.9 % Test CRC 26722255 Copy CRC 26722255 Accurately ripped (confidence 3) [66F02A32] (AR v2) Copy OK

Track 6

Filename D:\s\06 EXIT→RUNNING.wav

Pre-gap length 0:00:03.00

Peak level 100.0 % Extraction speed 1.7 X Track quality 99.9 % Test CRC 6B2B2759 Copy CRC 6B2B2759 Accurately ripped (confidence 3) [24863E68] (AR v2) Copy OK

Track 7

Filename D:\s\07 WARU—Bad Blood—.wav

Peak level 100.0 % Extraction speed 2.0 X Track quality 100.0 % Test CRC E5C7EB65 Copy CRC E5C7EB65 Accurately ripped (confidence 2) [D7BAD418] (AR v2) Copy OK

Track 8

Filename D:\s\08 somewhere.wav

Pre-gap length 0:00:02.30

Peak level 92.6 % Extraction speed 2.0 X Track quality 100.0 % Test CRC 89203A9D Copy CRC 89203A9D Accurately ripped (confidence 2) [C74C5A9C] (AR v2) Copy OK

Track 9

Filename D:\s\09 SO IN THE WORLD.wav

Pre-gap length 0:00:03.05

Peak level 100.0 % Extraction speed 2.1 X Track quality 100.0 % Test CRC ED21F9B2 Copy CRC ED21F9B2 Accurately ripped (confidence 2) [B3C93B02] (AR v2) Copy OK

Track 10

Filename D:\s\10 don't be discouraged.wav

Pre-gap length 0:00:01.00

Peak level 100.0 % Extraction speed 2.3 X Track quality 100.0 % Test CRC 919CF57E Copy CRC 919CF57E Accurately ripped (confidence 2) [060E51B6] (AR v2) Copy OK

All tracks accurately ripped

No errors occurred

End of status report

==== Log checksum DF1C8CE78B4D005FB96BDCA86D2B81A52482FCE675A17591BB106C9555D52644 ====
REM GENRE AnimeREM DATE 1997REM DISCID 840AB40AREM COMMENT "ExactAudioCopy v1.0b3"PERFORMER "VA"TITLE "スレイヤーズ TRY TREASURY☆VOX"FILE "01 TAKE YOUR COURAGE.wav" WAVE TRACK 01 AUDIO TITLE "TAKE YOUR COURAGE" PERFORMER "L・O・N" INDEX 01 00:00:00 TRACK 02 AUDIO TITLE "Breeze" PERFORMER "林原めぐみ" INDEX 00 04:33:60FILE "02 Breeze.wav" WAVE INDEX 01 00:00:00 TRACK 03 AUDIO TITLE "BUT BUT BUT" PERFORMER "石田 彰" INDEX 00 04:24:23FILE "03 BUT BUT BUT.wav" WAVE INDEX 01 00:00:00 TRACK 04 AUDIO TITLE "Stand Up!" PERFORMER "鈴木真仁" INDEX 00 04:42:38FILE "04 Stand Up!.wav" WAVE INDEX 01 00:00:00 TRACK 05 AUDIO TITLE "more than words" PERFORMER "緑川 光" INDEX 00 04:40:40FILE "05 more than words.wav" WAVE INDEX 01 00:00:00 TRACK 06 AUDIO TITLE "EXIT→RUNNING" PERFORMER "林原めぐみ" INDEX 00 06:01:40FILE "06 EXIT→RUNNING.wav" WAVE INDEX 01 00:00:00FILE "07 WARU.Bad Blood..wav" WAVE TRACK 07 AUDIO TITLE "WARU.Bad Blood." PERFORMER "高木 渉" INDEX 01 00:00:00 TRACK 08 AUDIO TITLE "somewhere" PERFORMER "桑島法子" INDEX 00 04:11:25FILE "08 somewhere.wav" WAVE INDEX 01 00:00:00 TRACK 09 AUDIO TITLE "SO IN THE WORLD" PERFORMER "松本保典" INDEX 00 03:45:17FILE "09 SO IN THE WORLD.wav" WAVE INDEX 01 00:00:00 TRACK 10 AUDIO TITLE "don't be discouraged" PERFORMER "林原めぐみ" INDEX 00 04:29:40FILE "10 don't be discouraged.wav" WAVE INDEX 01 00:00:00
</div>
</div>
<span class="post-font-sans1">01 Aru Asa, Sore wa Totsuzen ni
02 Breeze [TV Size]
03 don't be discouraged [Instrumental-1]
04 Aikawarazu no Hakairyoku
05 Smile your trouble away!
06 Egao ga Shiawase Tsuretekuru
07 Into Confusion
08 Soshite Itsumo no Yonningumi
09 eyecatcher
10 don't be discouraged [HEARTBEAT MIX]
11 Filia, Sono Uruwashiki Hitomi ni
12 The Tail of a Modern Woman
13 Yokagao wa Urei wo Obite
14 Metamorphosis
15 Kiniro no Tsubasa
16 The Shadow of Death
17 Karyou Ouzoku
18 Keep Faith With You
19 FAIR WIND
20 Kyoushuu ~Igyou no Gundan
21 Rebel gainst Destiny
22 Armace
23 Bloody Battle
24 Breeze [WINDSTORM MIX]
25 Tabidachi no Yokan
26 Extreme Tension
27 Daichi no Aida de
28 What in the World Happened
29 Soshite Aratanaru Rekishi e
30 don't be discouraged [TV Size]
31 don't be discouraged [Instrumental-2]</span>
<div class="sp-wrap">
<div class="sp-head folded"><span class="post-font-sans1"><span>log</span></span></div>
<div class="sp-body">

Exact Audio Copy V1.0 beta 3 from 29. August 2011

EAC extraction logfile from 8. September 2016, 23:19

VA / スレイヤーズ TRY TREASURY☆BGM

Used drive : HL-DT-STDVDRAM GH22NS50 Adapter: 3 ID: 1

Read mode : SecureUtilize accurate stream : YesDefeat audio cache : YesMake use of C2 pointers : No

Read offset correction : 667Overread into Lead-In and Lead-Out : NoFill up missing offset samples with silence : YesDelete leading and trailing silent blocks : NoNull samples used in CRC calculations : YesUsed interface : Native Win32 interface for Win NT & 2000Gap handling : Appended to previous track

Used output format : User Defined EncoderSelected bitrate : 1024 kBit/sQuality : HighAdd ID3 tag : NoCommand line compressor : C:\Program Files\Exact Audio Copy\Flac\flac.exeAdditional command line options : -V -8 -T "Genre=%genre%" -T "Artist=%artist%" -T "Title=%title%" -T "Album=%albumtitle%" -T "Date=%year%" -T "Tracknumber=%tracknr%" -T "Comment=%comment%" %source%

TOC of the extracted CD

Track | Start | Length | Start sector | End sector --------------------------------------------------------- 1 | 0:00.00 | 1:52.20 | 0 | 8419 2 | 1:52.20 | 1:43.65 | 8420 | 16209 3 | 3:36.10 | 1:04.70 | 16210 | 21079 4 | 4:41.05 | 1:39.45 | 21080 | 28549 5 | 6:20.50 | 3:16.25 | 28550 | 43274 6 | 9:37.00 | 4:35.00 | 43275 | 63899 7 | 14:12.00 | 1:10.00 | 63900 | 69149 8 | 15:22.00 | 2:34.12 | 69150 | 80711 9 | 17:56.12 | 0:11.63 | 80712 | 81599 10 | 18:08.00 | 4:41.35 | 81600 | 102709 11 | 22:49.35 | 1:28.27 | 102710 | 109336 12 | 24:17.62 | 2:44.25 | 109337 | 121661 13 | 27:02.12 | 1:09.13 | 121662 | 126849 14 | 28:11.25 | 1:03.27 | 126850 | 131601 15 | 29:14.52 | 2:02.53 | 131602 | 140804 16 | 31:17.30 | 2:05.37 | 140805 | 150216 17 | 33:22.67 | 1:30.53 | 150217 | 157019 18 | 34:53.45 | 1:29.12 | 157020 | 163706 19 | 36:22.57 | 5:47.00 | 163707 | 189731 20 | 42:09.57 | 1:08.43 | 189732 | 194874 21 | 43:18.25 | 2:39.27 | 194875 | 206826 22 | 45:57.52 | 3:24.45 | 206827 | 222171 23 | 49:22.22 | 1:43.53 | 222172 | 229949 24 | 51:06.00 | 5:26.50 | 229950 | 254449 25 | 56:32.50 | 2:05.37 | 254450 | 263861 26 | 58:38.12 | 2:38.43 | 263862 | 275754 27 | 61:16.55 | 2:27.25 | 275755 | 286804 28 | 63:44.05 | 2:37.72 | 286805 | 298651 29 | 66:22.02 | 2:21.43 | 298652 | 309269 30 | 68:43.45 | 1:23.32 | 309270 | 315526 31 | 70:07.02 | 0:20.65 | 315527 | 317091

Track 1

Filename D:\s\01 ある朝、それは突然に.wav

Pre-gap length 0:00:02.00

Peak level 73.1 % Extraction speed 1.0 X Track quality 100.0 % Test CRC A63E5CBA Copy CRC A63E5CBA Accurately ripped (confidence 2) [D4F843CE] (AR v2) Copy OK

Track 2

Filename D:\s\02 Breeze [TV Size].wav

Pre-gap length 0:00:02.08

Peak level 100.0 % Extraction speed 0.9 X Track quality 100.0 % Test CRC 300A638C Copy CRC 300A638C Accurately ripped (confidence 2) [CB08F120] (AR v2) Copy OK

Track 3

Filename D:\s\03 don't be discouraged [Instrumental-1].wav

Pre-gap length 0:00:02.00

Peak level 100.0 % Extraction speed 0.8 X Track quality 100.0 % Test CRC E98A857D Copy CRC E98A857D Accurately ripped (confidence 2) [B033B3F9] (AR v2) Copy OK

Track 4

Filename D:\s\04 あいかわらずの破壊力.wav

Pre-gap length 0:00:01.00

Peak level 100.0 % Extraction speed 0.8 X Track quality 99.8 % Test CRC 790A6AA2 Copy CRC 790A6AA2 Accurately ripped (confidence 2) [8650D58C] (AR v2) Copy OK

Track 5

Filename D:\s\05 Smile your trouble away!.wav

Pre-gap length 0:00:01.00

Peak level 100.0 % Extraction speed 1.3 X Track quality 100.0 % Test CRC 8274B614 Copy CRC 8274B614 Accurately ripped (confidence 2) [265D5C0D] (AR v2) Copy OK

Track 6

Filename D:\s\06 笑顔が幸せ連れてくる.wav

Pre-gap length 0:00:00.65

Peak level 100.0 % Extraction speed 1.5 X Track quality 100.0 % Test CRC 52AC83CF Copy CRC 52AC83CF Accurately ripped (confidence 2) [7242BE98] (AR v2) Copy OK

Track 7

Filename D:\s\07 Into Confusion.wav

Pre-gap length 0:00:01.10

Peak level 93.0 % Extraction speed 1.0 X Track quality 100.0 % Test CRC D9CC7215 Copy CRC D9CC7215 Accurately ripped (confidence 2) [7EF6C479] (AR v2) Copy OK

Track 8

Filename D:\s\08 そしていつもの四人組.wav

Pre-gap length 0:00:01.00

Peak level 100.0 % Extraction speed 1.4 X Track quality 100.0 % Test CRC 8B8E52D7 Copy CRC 8B8E52D7 Accurately ripped (confidence 2) [01BEE44D] (AR v2) Copy OK

Track 9

Filename D:\s\09 eyecatcher.wav

Pre-gap length 0:00:01.00

Peak level 98.3 % Extraction speed 0.3 X Track quality 100.0 % Test CRC 21231571 Copy CRC 21231571 Accurately ripped (confidence 2) [D362B63D] (AR v2) Copy OK

Track 10

Filename D:\s\10 don't be discouraged [HEARTBEAT MIX].wav

Pre-gap length 0:00:02.00

Peak level 100.0 % Extraction speed 1.6 X Track quality 100.0 % Test CRC 50556F01 Copy CRC 50556F01 Accurately ripped (confidence 2) [CEBDD47C] (AR v2) Copy OK

Track 11

Filename D:\s\11 フィリア、その麗しき瞳に.wav

Pre-gap length 0:00:02.13

Peak level 52.2 % Extraction speed 1.3 X Track quality 100.0 % Test CRC E800E63C Copy CRC E800E63C Accurately ripped (confidence 2) [9C1A4059] (AR v2) Copy OK

Track 12

Filename D:\s\12 The Tail of a Modern Woman.wav

Pre-gap length 0:00:00.62

Peak level 100.0 % Extraction speed 1.3 X Track quality 99.9 % Test CRC 441FA244 Copy CRC 441FA244 Accurately ripped (confidence 2) [8853679D] (AR v2) Copy OK

Track 13

Filename D:\s\13 横顔は憂いを帯びて.wav

Pre-gap length 0:00:01.00

Peak level 42.5 % Extraction speed 1.3 X Track quality 100.0 % Test CRC C156D141 Copy CRC C156D141 Accurately ripped (confidence 2) [983B82D6] (AR v2) Copy OK

Track 14

Filename D:\s\14 Metamorphosis.wav

Pre-gap length 0:00:00.50

Peak level 92.3 % Extraction speed 1.2 X Track quality 100.0 % Test CRC 236A6FD8 Copy CRC 236A6FD8 Accurately ripped (confidence 2) [FA7351B1] (AR v2) Copy OK

Track 15

Filename D:\s\15 金色の翼.wav

Pre-gap length 0:00:00.65

Peak level 100.0 % Extraction speed 1.5 X Track quality 100.0 % Test CRC DF27F785 Copy CRC DF27F785 Accurately ripped (confidence 2) [52D72435] (AR v2) Copy OK

Track 16

Filename D:\s\16 The Shadow of Death.wav

Pre-gap length 0:00:01.05

Peak level 99.9 % Extraction speed 1.3 X Track quality 99.9 % Test CRC B2F313EC Copy CRC B2F313EC Accurately ripped (confidence 2) [5D0ECD71] (AR v2) Copy OK

Track 17

Filename D:\s\17 火竜王族.wav

Pre-gap length 0:00:00.60

Peak level 87.8 % Extraction speed 1.5 X Track quality 100.0 % Test CRC 71345117 Copy CRC 71345117 Accurately ripped (confidence 2) [C447D6D0] (AR v2) Copy OK

Track 18

Filename D:\s\18 Keep Faith With You.wav

Pre-gap length 0:00:00.65

Peak level 93.1 % Extraction speed 1.5 X Track quality 100.0 % Test CRC 7FD0ECF1 Copy CRC 7FD0ECF1 Accurately ripped (confidence 2) [DE1D8CB5] (AR v2) Copy OK

Track 19

Filename D:\s\19 FAIR WIND.wav

Pre-gap length 0:00:02.12

Peak level 100.0 % Extraction speed 2.1 X Track quality 100.0 % Test CRC 62889736 Copy CRC 62889736 Accurately ripped (confidence 2) [9623EB8F] (AR v2) Copy OK

Track 20

Filename D:\s\20 強襲 ─異形の軍団.wav

Pre-gap length 0:00:02.05

Peak level 100.0 % Extraction speed 1.4 X Track quality 100.0 % Test CRC DE08124C Copy CRC DE08124C Accurately ripped (confidence 2) [B83F5107] (AR v2) Copy OK

Track 21

Filename D:\s\21 Rebel gainst Destiny.wav

Pre-gap length 0:00:01.03

Peak level 100.0 % Extraction speed 1.6 X Track quality 99.9 % Test CRC 4530BF4F Copy CRC 4530BF4F Accurately ripped (confidence 2) [F906EB7B] (AR v2) Copy OK

Track 22

Filename D:\s\22 アルメイス.wav

Pre-gap length 0:00:00.57

Peak level 100.0 % Extraction speed 2.1 X Track quality 100.0 % Test CRC 14345525 Copy CRC 14345525 Accurately ripped (confidence 2) [75ED41A4] (AR v2) Copy OK

Track 23

Filename D:\s\23 Bloody Battle.wav

Pre-gap length 0:00:01.15

Peak level 100.0 % Extraction speed 1.8 X Track quality 100.0 % Test CRC A3291E01 Copy CRC A3291E01 Accurately ripped (confidence 2) [6C5C45BE] (AR v2) Copy OK

Track 24

Filename D:\s\24 Breeze [WINDSTORM MIX].wav

Pre-gap length 0:00:02.10

Peak level 100.0 % Extraction speed 2.1 X Track quality 99.9 % Test CRC 4AA41A3D Copy CRC 4AA41A3D Accurately ripped (confidence 2) [C17DE396] (AR v2) Copy OK

Track 25

Filename D:\s\25 旅立ちの予感.wav

Pre-gap length 0:00:02.00

Peak level 80.0 % Extraction speed 1.6 X Track quality 99.9 % Test CRC C6A596D6 Copy CRC C6A596D6 Accurately ripped (confidence 2) [F3E43F81] (AR v2) Copy OK

Track 26

Filename D:\s\26 Extreme Tension.wav

Pre-gap length 0:00:01.07

Peak level 100.0 % Extraction speed 2.1 X Track quality 100.0 % Test CRC F91D9CF3 Copy CRC F91D9CF3 Accurately ripped (confidence 2) [13294BFB] (AR v2) Copy OK

Track 27

Filename D:\s\27 大空と大地の間で.wav

Pre-gap length 0:00:00.60

Peak level 100.0 % Extraction speed 2.1 X Track quality 100.0 % Test CRC B501421C Copy CRC B501421C Accurately ripped (confidence 2) [E6A2A360] (AR v2) Copy OK

Track 28

Filename D:\s\28 What in the World Happened.wav

Pre-gap length 0:00:00.50

Peak level 92.5 % Extraction speed 2.2 X Track quality 100.0 % Test CRC 6D7F8375 Copy CRC 6D7F8375 Accurately ripped (confidence 2) [EAF3F21B] (AR v2) Copy OK

Track 29

Filename D:\s\29 そして新たなる歴史へ.wav

Pre-gap length 0:00:01.00

Peak level 100.0 % Extraction speed 2.2 X Track quality 100.0 % Test CRC 08AAF3B0 Copy CRC 08AAF3B0 Accurately ripped (confidence 2) [86E3D744] (AR v2) Copy OK

Track 30

Filename D:\s\30 don't be discouraged [TV Size].wav

Pre-gap length 0:00:02.00

Peak level 100.0 % Extraction speed 1.9 X Track quality 100.0 % Test CRC 7E08C710 Copy CRC 7E08C710 Accurately ripped (confidence 2) [1F06270F] (AR v2) Copy OK

Track 31

Filename D:\s\31 don't be discouraged [Instrumental-2].wav

Pre-gap length 0:00:02.12

Peak level 89.7 % Extraction speed 1.0 X Track quality 100.0 % Test CRC B93534C0 Copy CRC B93534C0 Accurately ripped (confidence 2) [F4360EA7] (AR v2) Copy OK

All tracks accurately ripped

No errors occurred

End of status report

==== Log checksum 2B43B9A4CEC6F4913A49F84A02E08DCADF70DCF78BE155813DE9716EC4A4F05C ====
REM GENRE AnimeREM DATE 1997REM DISCID D810831FREM COMMENT "ExactAudioCopy v1.0b3"PERFORMER "VA"TITLE "スレイヤーズ TRY TREASURY☆BGM"FILE "01 ある朝、それは突然に.wav" WAVE TRACK 01 AUDIO TITLE "ある朝、それは突然に" PERFORMER "VA" INDEX 01 00:00:00 TRACK 02 AUDIO TITLE "Breeze [TV Size]" PERFORMER "VA" INDEX 00 01:50:12FILE "02 Breeze [TV Size].wav" WAVE INDEX 01 00:00:00 TRACK 03 AUDIO TITLE "don't be discouraged [Instrumental-1]" PERFORMER "VA" INDEX 00 01:41:65FILE "03 don't be discouraged [Instrumental-1].wav" WAVE INDEX 01 00:00:00 TRACK 04 AUDIO TITLE "あいかわらずの破壊力" PERFORMER "VA" INDEX 00 01:03:70FILE "04 あいかわらずの破壊力.wav" WAVE INDEX 01 00:00:00 TRACK 05 AUDIO TITLE "Smile your trouble away!" PERFORMER "VA" INDEX 00 01:38:45FILE "05 Smile your trouble away!.wav" WAVE INDEX 01 00:00:00 TRACK 06 AUDIO TITLE "笑顔が幸せ連れてくる" PERFORMER "VA" INDEX 00 03:15:35FILE "06 笑顔が幸せ連れてくる.wav" WAVE INDEX 01 00:00:00 TRACK 07 AUDIO TITLE "Into Confusion" PERFORMER "VA" INDEX 00 04:33:65FILE "07 Into Confusion.wav" WAVE INDEX 01 00:00:00 TRACK 08 AUDIO TITLE "そしていつもの四人組" PERFORMER "VA" INDEX 00 01:09:00FILE "08 そしていつもの四人組.wav" WAVE INDEX 01 00:00:00 TRACK 09 AUDIO TITLE "eyecatcher" PERFORMER "VA" INDEX 00 02:33:12FILE "09 eyecatcher.wav" WAVE INDEX 01 00:00:00 TRACK 10 AUDIO TITLE "don't be discouraged [HEARTBEAT MIX]" PERFORMER "VA" INDEX 00 00:09:63FILE "10 don't be discouraged [HEARTBEAT MIX].wav" WAVE INDEX 01 00:00:00 TRACK 11 AUDIO TITLE "フィリア、その麗しき瞳に" PERFORMER "VA" INDEX 00 04:39:22FILE "11 フィリア、その麗しき瞳に.wav" WAVE INDEX 01 00:00:00 TRACK 12 AUDIO TITLE "The Tail of a Modern Woman" PERFORMER "VA" INDEX 00 01:27:40FILE "12 The Tail of a Modern Woman.wav" WAVE INDEX 01 00:00:00 TRACK 13 AUDIO TITLE "横顔は憂いを帯びて" PERFORMER "VA" INDEX 00 02:43:25FILE "13 横顔は憂いを帯びて.wav" WAVE INDEX 01 00:00:00 TRACK 14 AUDIO TITLE "Metamorphosis" PERFORMER "VA" INDEX 00 01:08:38FILE "14 Metamorphosis.wav" WAVE INDEX 01 00:00:00 TRACK 15 AUDIO TITLE "金色の翼" PERFORMER "VA" INDEX 00 01:02:37FILE "15 金色の翼.wav" WAVE INDEX 01 00:00:00 TRACK 16 AUDIO TITLE "The Shadow of Death" PERFORMER "VA" INDEX 00 02:01:48FILE "16 The Shadow of Death.wav" WAVE INDEX 01 00:00:00 TRACK 17 AUDIO TITLE "火竜王族" PERFORMER "VA" INDEX 00 02:04:52FILE "17 火竜王族.wav" WAVE INDEX 01 00:00:00 TRACK 18 AUDIO TITLE "Keep Faith With You" PERFORMER "VA" INDEX 00 01:29:63FILE "18 Keep Faith With You.wav" WAVE INDEX 01 00:00:00 TRACK 19 AUDIO TITLE "FAIR WIND" PERFORMER "VA" INDEX 00 01:27:00FILE "19 FAIR WIND.wav" WAVE INDEX 01 00:00:00 TRACK 20 AUDIO TITLE "強襲 ─異形の軍団" PERFORMER "VA" INDEX 00 05:44:70FILE "20 強襲 ─異形の軍団.wav" WAVE INDEX 01 00:00:00 TRACK 21 AUDIO TITLE "Rebel gainst Destiny" PERFORMER "VA" INDEX 00 01:07:40FILE "21 Rebel gainst Destiny.wav" WAVE INDEX 01 00:00:00 TRACK 22 AUDIO TITLE "アルメイス" PERFORMER "VA" INDEX 00 02:38:45FILE "22 アルメイス.wav" WAVE INDEX 01 00:00:00 TRACK 23 AUDIO TITLE "Bloody Battle" PERFORMER "VA" INDEX 00 03:23:30FILE "23 Bloody Battle.wav" WAVE INDEX 01 00:00:00 TRACK 24 AUDIO TITLE "Breeze [WINDSTORM MIX]" PERFORMER "VA" INDEX 00 01:41:43FILE "24 Breeze [WINDSTORM MIX].wav" WAVE INDEX 01 00:00:00 TRACK 25 AUDIO TITLE "旅立ちの予感" PERFORMER "VA" INDEX 00 05:24:50FILE "25 旅立ちの予感.wav" WAVE INDEX 01 00:00:00 TRACK 26 AUDIO TITLE "Extreme Tension" PERFORMER "VA" INDEX 00 02:04:30FILE "26 Extreme Tension.wav" WAVE INDEX 01 00:00:00 TRACK 27 AUDIO TITLE "大空と大地の間で" PERFORMER "VA" INDEX 00 02:37:58FILE "27 大空と大地の間で.wav" WAVE INDEX 01 00:00:00 TRACK 28 AUDIO TITLE "What in the World Happened?" PERFORMER "VA" INDEX 00 02:26:50FILE "28 What in the World Happened.wav" WAVE INDEX 01 00:00:00 TRACK 29 AUDIO TITLE "そして新たなる歴史へ" PERFORMER "VA" INDEX 00 02:36:72FILE "29 そして新たなる歴史へ.wav" WAVE INDEX 01 00:00:00 TRACK 30 AUDIO TITLE "don't be discouraged [TV Size]" PERFORMER "VA" INDEX 00 02:19:43FILE "30 don't be discouraged [TV Size].wav" WAVE INDEX 01 00:00:00 TRACK 31 AUDIO TITLE "don't be discouraged [Instrumental-2]" PERFORMER "VA" INDEX 00 01:21:20FILE "31 don't be discouraged [Instrumental-2].wav" WAVE INDEX 01 00:00:00
</div>
</div>
</div>
</div>

Трекер:  [ 08-Сен-2016 23:30 ]

  

Скачать .torrent

Размер .torrent файла 27 KB


Размер: 1.75 GB
Хэш (hash) релиза: 82cd9bbdc1405b1f5e44a3a26e4a79e4bb52dc8a

Еще никто не оставлял запись к записи скачать торрент Рубаки Slayers . Будь первым!

!Обратная связь