Juliano Cazarré | WonderFox DVD Ripper Pro 11 0 Keygen | pikachukaki

Скачать через торрент [VIDEO] Зимний вечер в Гаграх бесплатно русская версия torrent активатор

Статистика раздачи
Размер:  1.13 GB   |    Зарегистрирован:  1 год 10 месяцев   |    .torrent скачан:  23 раза   |   
Раздают:  1  
   
загрузка...
 
Автор Сообщение

Galfimbul

avatar Galfimbul



<span class="post-font-serif1">Зимний вечер в Гаграх</span>
<span class="post-font-serif1">Год выпуска: 1985
Страна: СССР
Жанр: мюзикл, драма, мелодрама, комедия
Продолжительность: 01:25:08
Перевод: Не требуется
Cубтитры: нет

Режиссер: Карен Шахназаров
Сценарий: Александр Бородянский, Карен Шахназаров
Оператор: Владимир Шевцик
Композитор: Анатолий Кролл
Художник: Валерий Филиппов
Монтаж: Лидия Милиоти

В ролях: Евгений Евстигнеев, Аркадий Насыров, Александр Панкратов-Чёрный, Наталья Гундарева, Сергей Никоненко, Пётр Щербаков, Светлана Аманова, Аня Иванова, Георгий Бурков, Александр Ширвиндт, Лилия Сабитова, Евгений Зернов, Владимир Кирсанов, Николай Аверюшкин

Описание: Стремительный ритм, виртуозная и озорная импровизация — вот что такое чечетка.. Главный герой фильма, некогда знаменитый чечеточник, кумир публики, живет ныне скромно и незаметно. Он репетитор танцев в эстрадном коллективе, где блещут иные «звезды»… И вдруг все меняется: к старому артисту словно возвращается молодость. Так подействовала на него встреча с несколько странным молодым человеком, который пришел со сломанной ногой и попросил, чтобы его ни много ни мало научили «бить степ»…

Качество: WEB-DLRip | <span class="post-font-serif1">WEB-DL 1080p BLUEBIRD
Формат: MP4

Видео: AVC (x264), 720x520 (1.39:1), ~1740 kbps, 25.000 fps, 0.186 bpp
Аудио: Русский, AСC, 48 KHz, 2 ch, 160 kbps

[b]Релиз:

</span></a></span></span></span>
[spoiler="x264 [info]"]
x264 [info]: frame I:764 Avg QP:15.92 size: 45332
x264 [info]: frame P:29203 Avg QP:17.91 size: 16626
x264 [info]: frame B:97740 Avg QP:19.83 size: 6037
x264 [info]: consecutive B-frames: 1.0% 1.5% 4.7% 50.8% 17.4% 19.5% 2.5% 2.3% 0.2% 0.0% 0.0%
x264 [info]: mb I I16..4: 1.6% 84.6% 13.8%
x264 [info]: mb P I16..4: 0.2% 8.8% 0.7% P16..4: 33.5% 40.9% 14.7% 0.0% 0.0% skip: 1.1%
x264 [info]: mb B I16..4: 0.0% 0.8% 0.1% B16..8: 32.1% 21.4% 3.8% direct: 9.2% skip:32.6% L0:41.0% L1:41.2% BI:17.7%
x264 [info]: 8x8 transform intra:89.2% inter:60.2%
x264 [info]: direct mvs spatial:98.7% temporal:1.3%
x264 [info]: coded y,uvDC,uvAC intra: 94.5% 87.1% 58.9% inter: 30.1% 27.4% 1.6%
x264 [info]: i16 v,h,dc,p: 34% 9% 4% 53%
x264 [info]: i8 v,h,dc,ddl,ddr,vr,hd,vl,hu: 13% 8% 8% 9% 13% 13% 12% 12% 13%
x264 [info]: i4 v,h,dc,ddl,ddr,vr,hd,vl,hu: 15% 7% 4% 8% 14% 16% 12% 12% 11%
x264 [info]: i8c dc,h,v,p: 38% 24% 22% 16%
x264 [info]: ref P L0: 49.2% 20.0% 10.3% 7.1% 4.5% 4.9% 3.9% 0.0%
x264 [info]: ref B L0: 79.3% 9.6% 4.5% 2.7% 1.8% 1.3% 0.7%
x264 [info]: ref B L1: 97.0% 3.0%
x264 [info]: kb/s:1738.66
encoded 127707 frames, 6.77 fps, 1738.66 kb/s
<pre>
GeneralUnique ID : 192484365743214538965048923150984807363 (0x90CF23F0047137EAAA97D5B3C1F203C3)Complete name : ...\[email protected] : MatroskaFormat version : Version 4 / Version 2File size : 1.13 GiBDuration : 1h 25mnOverall bit rate : 1 898 KbpsMovie name : Зимний вечер в Гаграх / 1985 [email protected]=-Encoded date : UTC 2016-09-04 04:06:46Writing application : mkvmerge v9.4.0 ('Knurl') 64bitWriting library : libebml v1.3.4 + libmatroska v1.4.5Attachments : 500.jpg

VideoID : 1Format : AVCFormat/Info : Advanced Video CodecFormat profile : [email protected] settings, CABAC : YesFormat settings, ReFrames : 8 framesCodec ID : V_MPEG4/ISO/AVCDuration : 1h 25mnBit rate : 1 739 KbpsWidth : 720 pixelsHeight : 520 pixelsDisplay aspect ratio : 1.385Frame rate mode : ConstantFrame rate : 25.000 fpsColor space : YUVChroma subsampling : 4:2:0Bit depth : 8 bitsScan type : ProgressiveBits/(Pixel*Frame) : 0.186Stream size : 1.03 GiB (92%)Title : Rip by nnlabetikWriting library : x264 core 148 r2705 3f5ed56Encoding settings : cabac=1 / ref=8 / deblock=1:-2:-1 / analyse=0x3:0x113 / me=umh / subme=11 / psy=1 / psy_rd=1.00:0.00 / mixed_ref=1 / me_range=32 / chroma_me=1 / trellis=2 / 8x8dct=1 / cqm=0 / deadzone=21,11 / fast_pskip=0 / chroma_qp_offset=-2 / threads=4 / lookahead_threads=1 / sliced_threads=0 / nr=0 / decimate=1 / interlaced=0 / bluray_compat=0 / constrained_intra=0 / bframes=10 / b_pyramid=2 / b_adapt=2 / b_bias=0 / direct=3 / weightb=1 / open_gop=0 / weightp=0 / keyint=250 / keyint_min=25 / scenecut=40 / intra_refresh=0 / rc_lookahead=60 / rc=2pass / mbtree=0 / bitrate=1739 / ratetol=1.0 / qcomp=0.60 / qpmin=0 / qpmax=69 / qpstep=4 / cplxblur=20.0 / qblur=0.5 / vbv_maxrate=20000 / vbv_bufsize=25000 / nal_hrd=none / filler=0 / ip_ratio=1.35 / pb_ratio=1.25 / aq=1:1.00Language : RussianDefault : YesForced : NoColor range : LimitedColor primaries : Generic filmTransfer characteristics : BT.709Matrix coefficients : BT.709

AudioID : 2Format : AACFormat/Info : Advanced Audio CodecFormat profile : LCCodec ID : A_AACDuration : 1h 25mnBit rate : 157 KbpsChannel(s) : 2 channelsChannel positions : Front: L RSampling rate : 48.0 KHzFrame rate : 46.875 fps (1024 spf)Compression mode : LossyStream size : 95.7 MiB (8%)Title : AAC 2.0 @ 160 kbpsLanguage : RussianDefault : YesForced : No

Menu00:00:00.000 : en:Глава 100:06:00.280 : en:Глава 200:11:28.440 : en:Глава 300:17:01.520 : en:Глава 400:23:31.040 : en:Глава 500:30:03.880 : en:Глава 600:36:58.440 : en:Глава 700:43:54.600 : en:Глава 800:49:21.400 : en:Глава 900:54:44.040 : en:Глава 1001:02:21.440 : en:Глава 1101:08:43.560 : en:Глава 1201:14:25.160 : en:Глава 1301:20:08.000 : en:Глава 14
</pre>[/spoiler] <span class="post-font-serif1">Отдельная благодарность - BLUEBIRD , BlurayDude.</span>

Трекер:  [ 04-Сен-2016 09:00 ]

  

Скачать .torrent

Размер .torrent файла 11 KB


Размер: 1.13 GB
Хэш (hash) релиза: 395427435d14a33e5e1279c758bcf76922ca33cd

Еще никто не оставлял запись к записи скачать торрент [VIDEO] Зимний вечер в Гаграх . Будь первым!

!Обратная связь