Download | Lexie Roth | Douglas Booth

Скачать через торрент [VIDEO] Книга джунглей The Jungle Book бесплатно русская версия torrent активатор

Статистика раздачи
Размер:  2.18 GB   |    Зарегистрирован:  1 год 10 месяцев   |    .torrent скачан:  49 раз   |   
Раздают:  1  
   
загрузка...
 
Автор Сообщение

Galfimbul

avatar Galfimbul



<span class="post-font-serif1">Книга джунглей / The Jungle Book</span>«The legend will never be the same»
<span class="post-font-serif1">Год выпуска: 2016
Страна: Великобритания, США
Жанр: фэнтези, драма, приключения, семейный
Продолжительность: 01:45:54
Перевод: Профессиональный (дублированный) - (BD CEE)
Оригинальная аудиодорожка: английский

Режиссер: Джон Фавро / Jon Favreau

В ролях: Нил Сетхи, Билл Мюррей, Бен Кингсли, Идрис Эльба, Лупита Нионго, Скарлетт Йоханссон, Джанкарло Эспозито, Кристофер Уокен, Гарри Шендлинг, Брайтон Роуз

Описание: Непримиримая борьба с опасным и страшным тигром Шерханом вынуждает Маугли покинуть волчью стаю и отправиться в деревню к людям. На пути мальчика ждут удивительные открытия и захватывающие приключения с пантерой Багирой, медведем Балу, питоном Каа и другими обитателями дремучих джунглей.

Качество: BDRip |<a href="viewtopic.php?t=5274891" class="postLink"><span class="post-font-serif1">Blu-ray disc 1080p</a>|
Формат: MP4

Видео: AVC (x264), 1280x692 (1.85:1), ~2625 kbps, 23.976 fps, 0.124 bpp
Аудио 1: Русский, AСC, 48 KHz, 2 ch, 160 kbps
Аудио 2: Английский, AСC, 48 KHz, 2 ch, 160 kbps
Cубтитры: русские, английские
Формат субтитров: softsub (SRT)</span></span>

[b]Релиз:

</span></a></span>
[spoiler="x264 [info]"]
crop(0, 21, 0, -21)
raw : 1280x692p 1:1 @ 24000/1001 fps (cfr)
x264 : using SAR=1/1
x264 : frame I:1124 Avg QP:20.17 size:100195
x264 : frame P:38842 Avg QP:24.03 size: 26194
x264 : frame B:112394 Avg QP:25.47 size: 8485
x264 : consecutive B-frames: 4.7% 3.4% 9.9% 28.0% 20.8% 29.2% 2.7% 0.5% 0.3% 0.2% 0.4%
x264 : mb I I16..4: 5.6% 77.7% 16.7%
x264 : mb P I16..4: 0.9% 8.7% 1.4% P16..4: 35.3% 34.6% 9.2% 0.0% 0.0% skip: 9.9%
x264 : mb B I16..4: 0.1% 1.3% 0.2% B16..8: 34.9% 14.8% 2.0% direct: 3.5% skip:43.2% L0:42.1% L1:48.8% BI: 9.1%
x264 : 8x8 transform intra:78.7% inter:67.1%
x264 : direct mvs spatial:94.6% temporal:5.4%
x264 : coded y,uvDC,uvAC intra: 78.6% 59.6% 23.4% inter: 16.3% 8.9% 0.8%
x264 : i16 v,h,dc,p: 17% 16% 5% 62%
x264 : i8 v,h,dc,ddl,ddr,vr,hd,vl,hu: 8% 5% 5% 10% 16% 14% 16% 12% 14%
x264 : i4 v,h,dc,ddl,ddr,vr,hd,vl,hu: 26% 5% 5% 7% 12% 11% 12% 9% 12%
x264 : i8c dc,h,v,p: 31% 32% 19% 19%
x264 : ref P L0: 63.9% 14.1% 8.3% 4.4% 3.4% 3.0% 2.7% 0.2%
x264 : ref B L0: 81.7% 8.3% 4.4% 2.2% 1.8% 1.1% 0.5%
x264 : ref B L1: 96.1% 3.9%
x264 : kb/s:2623.21
encoded 152360 frames, 4.90 fps, 2623.21 kb/s
<pre>
GeneralUnique ID : 189377493731383967680935447399525029903 (0x8E78C75222835959AC34862A49C0980F)Complete name : C:\The Jungle Book 2016\The Jungle [email protected] : MatroskaFormat version : Version 4 / Version 2File size : 2.18 GiBDuration : 1h 45mnOverall bit rate : 2 948 KbpsMovie name : Книга джунглей / The Jungle Book / 2016 [email protected]=-Encoded date : UTC 2016-08-31 04:44:22Writing application : mkvmerge v9.4.0 ('Knurl') 64bitWriting library : libebml v1.3.4 + libmatroska v1.4.5Attachments : 501.jpg

VideoID : 1Format : AVCFormat/Info : Advanced Video CodecFormat profile : [email protected] settings, CABAC : YesFormat settings, ReFrames : 8 framesCodec ID : V_MPEG4/ISO/AVCDuration : 1h 45mnBit rate : 2 625 KbpsWidth : 1 280 pixelsHeight : 692 pixelsDisplay aspect ratio : 1.85:1Frame rate mode : ConstantFrame rate : 23.976 (24000/1001) fpsColor space : YUVChroma subsampling : 4:2:0Bit depth : 8 bitsScan type : ProgressiveBits/(Pixel*Frame) : 0.124Stream size : 1.94 GiB (89%)Title : Rip by nnlabetikWriting library : x264 core 148 r2705 3f5ed56Encoding settings : cabac=1 / ref=8 / deblock=1:-2:-1 / analyse=0x3:0x113 / me=umh / subme=11 / psy=1 / psy_rd=1.00:0.00 / mixed_ref=1 / me_range=32 / chroma_me=1 / trellis=2 / 8x8dct=1 / cqm=0 / deadzone=21,11 / fast_pskip=0 / chroma_qp_offset=-2 / threads=4 / lookahead_threads=1 / sliced_threads=0 / nr=0 / decimate=1 / interlaced=0 / bluray_compat=0 / constrained_intra=0 / bframes=10 / b_pyramid=2 / b_adapt=2 / b_bias=0 / direct=3 / weightb=1 / open_gop=0 / weightp=0 / keyint=240 / keyint_min=23 / scenecut=40 / intra_refresh=0 / rc_lookahead=60 / rc=2pass / mbtree=0 / bitrate=2625 / ratetol=1.0 / qcomp=0.60 / qpmin=0 / qpmax=69 / qpstep=4 / cplxblur=20.0 / qblur=0.5 / vbv_maxrate=50000 / vbv_bufsize=62500 / nal_hrd=none / filler=0 / ip_ratio=1.35 / pb_ratio=1.25 / aq=1:1.00Language : EnglishDefault : YesForced : NoColor range : LimitedColor primaries : Generic filmTransfer characteristics : BT.709Matrix coefficients : BT.709

Audio #1ID : 2Format : AACFormat/Info : Advanced Audio CodecFormat profile : LCCodec ID : A_AACDuration : 1h 45mnBit rate : 161 KbpsChannel(s) : 2 channelsChannel positions : Front: L RSampling rate : 48.0 KHzFrame rate : 46.875 fps (1024 spf)Compression mode : LossyStream size : 122 MiB (5%)Title : DubLanguage : RussianDefault : YesForced : No

Audio #2ID : 3Format : AACFormat/Info : Advanced Audio CodecFormat profile : LTPCodec ID : A_AACDuration : 1h 45mnBit rate : 161 KbpsChannel(s) : 2 channelsChannel positions : Front: L RSampling rate : 48.0 KHzFrame rate : 46.875 fps (1024 spf)Compression mode : LossyStream size : 122 MiB (5%)Title : OrgLanguage : EnglishDefault : NoForced : No

Text #1ID : 4Format : UTF-8Codec ID : S_TEXT/UTF8Codec ID/Info : UTF-8 Plain TextDuration : 1h 44mnBit rate : 60 bpsCount of elements : 1107Stream size : 46.0 KiB (0%)Language : RussianDefault : NoForced : No

Text #2ID : 5Format : UTF-8Codec ID : S_TEXT/UTF8Codec ID/Info : UTF-8 Plain TextDuration : 1h 34mnBit rate : 42 bpsCount of elements : 1107Stream size : 29.3 KiB (0%)Language : EnglishDefault : NoForced : No

Text #3ID : 6Format : UTF-8Codec ID : S_TEXT/UTF8Codec ID/Info : UTF-8 Plain TextDuration : 1h 44mnBit rate : 44 bpsCount of elements : 1218Stream size : 34.2 KiB (0%)Language : EnglishDefault : NoForced : No

Menu00:00:00.000 : en:Chapter 0100:00:48.214 : en:Chapter 0200:05:15.315 : en:Chapter 0300:09:02.458 : en:Chapter 0400:12:42.178 : en:Chapter 0500:16:34.451 : en:Chapter 0600:21:20.028 : en:Chapter 0700:27:15.133 : en:Chapter 0800:35:04.143 : en:Chapter 0900:43:21.724 : en:Chapter 1000:48:05.132 : en:Chapter 1100:53:29.247 : en:Chapter 1200:58:03.271 : en:Chapter 1301:05:46.442 : en:Chapter 1401:10:35.522 : en:Chapter 1501:17:01.325 : en:Chapter 1601:20:48.927 : en:Chapter 1701:24:46.539 : en:Chapter 1801:30:32.969 : en:Chapter 1901:35:53.205 : en:Chapter 20
</pre>[/spoiler]

Трекер:  [ 31-Авг-2016 10:00 ]

  

Скачать .torrent

Размер .torrent файла 11 KB


Размер: 2.18 GB
Хэш (hash) релиза: 5e7fa862bc307b96287e375d75a625143a790978

Еще никто не оставлял запись к записи скачать торрент [VIDEO] Книга джунглей The Jungle Book . Будь первым!

!Обратная связь