Il quaderno di Maya | Bhagat Singh Di Udeek (2018) 1080p Untouched WEBHD AVC AAC ESub [DTOne] | Vertical City Banner Mock-Up

Скачать через торрент [MULT] Бивис и Батт-Хед уделывают Америку Beavis and Butt-Head Do America бесплатно русская версия torrent активатор

Статистика раздачи
Размер:  698 MB   |    Зарегистрирован:  1 год 10 месяцев   |    .torrent скачан:  33 раза   |   
Раздают:  1  
   
загрузка...
 
Автор Сообщение

Galfimbul

avatar Galfimbul


Бивис и Батт-Хед уделывают Америку / Beavis and Butt-Head Do America
Год выпуска: 1996
Страна: США
Жанр: мультфильм, комедия, криминал, приключения
Продолжительность: 01:20:49
Перевод: Профессиональный (многоголосый закадровый)
Режиссер: Майк Джадж / Mike Judge
Описание: Из дома Бивиса и Баттхеда похищают телевизор. В поисках любимого развлечения друзья встречают опасного преступника Мади, который, приняв их за наёмных убийц, отправляет Бивиса и Баттхеда в Лас-Вегас. Мади предлагает неплохие деньги за то, чтобы мальчики «сделали» его жену. Бивис и Баттхед соглашаются, потому что надеются, что им наконец-то дадут.
В Лас-Вегасе Бивис и Батхед знакомятся с Даллас, женой Мади. Она зашивает в штаны Бивиса похищенный из секретной исследовательской лаборатории блок «X-5». Даллас заказывает билеты для мальчиков на туристический автобус, который направляется в Вашингтон. Федеральная служба безопасности начинает охоту на Бивиса и Батхеда, которые традиционно начинаю попадать в передряги и отравлять жизнь всем жителям США.
Качество: HDTVRip
Формат: MP4
Видео: MPEG-4 Visual, 640x360 (16:9), 1080 Kbps, 23,976 fps
Аудио: Русский, AAC, 2 ch, 128 Kbps, 48 KHz
ОбщееПолное имя : D:\Раздачи\Beavis and Butt-Head Do America (HDTVRip) 640x.mp4Формат : MPEG-4Профиль формата : Base Media / Version 2Идентификатор кодека : mp42 (isom/mp42/3gp5)Размер файла : 698 МбайтПродолжительность : 1 ч. 20 м.Режим общего битрейта : ПеременныйОбщий поток : 1207 Кбит/секДата кодирования : UTC 2016-08-29 08:22:00Дата пометки : UTC 2016-08-29 08:22:00

ВидеоИдентификатор : 201Формат : MPEG-4 VisualПрофиль формата : [email protected]Параметр BVOP формата : НетПараметр QPel формата : НетПараметр GMC формата : Без точки переходаПараметр матрицы формата : Default (H.263)Идентификатор кодека : 20Продолжительность : 1 ч. 20 м.Вид битрейта : ПеременныйБитрейт : 1079 Кбит/секМаксимальный битрейт : 4656 Кбит/секШирина : 640 пикселейВысота : 360 пикселейСоотношение сторон : 16:9Режим частоты кадров : ПостоянныйЧастота кадров : 23,976 (24000/1001) кадра/секЦветовое пространство : YUVСубдискретизация насыщенности : 4:2:0Битовая глубина : 8 битТип развёртки : ПрогрессивнаяМетод сжатия : С потерямиБит/(Пиксели*Кадры) : 0.195Размер потока : 624 Мбайт (89%)Библиотека кодирования : Lavc52.30.2Дата кодирования : UTC 2016-08-29 08:22:00Дата пометки : UTC 2016-08-29 08:23:12

АудиоИдентификатор : 101Формат : AACФормат/Информация : Advanced Audio CodecПрофиль формата : LCИдентификатор кодека : 40Продолжительность : 1 ч. 20 м.Вид битрейта : ПеременныйБитрейт : 125 Кбит/секМаксимальный битрейт : 169 Кбит/секКаналы : 2 каналаРасположение каналов : Front: L RЧастота : 48,0 КГцЧастота кадров : 46,875 кадров/сек (1024 spf)Метод сжатия : С потерямиРазмер потока : 72,5 Мбайт (10%)Дата кодирования : UTC 2016-08-29 08:23:00Дата пометки : UTC 2016-08-29 08:23:12

Прочее #1Идентификатор : 2Тип : Object descriptionФормат : SystemИдентификатор кодека : 1Продолжительность : 1 с. 0 мс.Дата кодирования : UTC 2016-08-29 08:23:12Дата пометки : UTC 2016-08-29 08:23:12

Прочее #2Идентификатор : 1Тип : Scene descriptionФормат : System CoreИдентификатор кодека : 2Продолжительность : 1 с. 0 мс.Дата кодирования : UTC 2016-08-29 08:23:12Дата пометки : UTC 2016-08-29 08:23:12


Трекер:  [ 31-Авг-2016 08:30 ]

  

Скачать .torrent

Размер .torrent файла 14 KB


Размер: 698 MB
Хэш (hash) релиза: 6d213e4679536bc5f9a6c8743931e0749a55b1e2

Еще никто не оставлял запись к записи скачать торрент [MULT] Бивис и Батт-Хед уделывают Америку Beavis and Butt-Head Do America . Будь первым!

!Обратная связь