Visual Acoustics 2008 | Season 10 Episode 24 Love Is Blind | Сборки ОС Windows от Bella

Скачать через торрент [VIDEO] Первый мститель: Противостояние Captain America: Civil War бесплатно русская версия torrent активатор

Статистика раздачи
Размер:  773 MB   |    Зарегистрирован:  1 год 10 месяцев   |    .torrent скачан:  355 раз   |   
Раздают:  1  
   
загрузка...
 
Автор Сообщение

Galfimbul

avatar Galfimbul


<span class="post-font-impact">Первый мститель: Противостояние / Captain America: Civil War</span> Страна: США
Производство: Deluxe Digital Studios, Marvel Entertainment, Marvel Studios Inc., Studio Babelsberg, Vita-Ray Dutch Productions (III)
Год выпуска: 2016
Жанр: Фантастика, боевик, приключения
Режиссёр: Энтони Руссо, Джо Руссо
В ролях: Крис Эванс, Роберт Дауни мл., Скарлетт Йоханссон, Себастьян Стэн, Энтони Маки, Дон Чидл, Джереми Реннер, Чедвик Боузман

Перевод: Дублированный | iTunes

Релиз от
Автор рипа: ProT1gR

Описание: Мстители под руководством Капитана Америки оказываются участниками разрушительного инцидента, имеющего международный масштаб. Эти события заставляют правительство задуматься над тем, чтобы начать регулировать действия всех людей с особыми способностями, введя «Акт о регистрации супергероев», вынуждая их раскрыть свои личности и работать на правительственные службы.
Видя в этом законе нарушение гражданских прав и плевок во всё, что он верит, Стив Роджерс открыто восстаёт против нового режима, ведя за собой группу героев, поддерживающих его мнение. В свою же очередь, Тони Старк видит правильность в новом законе, и становится во главе героев, поддерживающих его. Всё это приводит к неизбежному расколу Мстителей, и гражданской войне между двумя сторонами. Сражаясь друг с другом, Старк и Роджерс не знают о том, что таинственный Барон Земо уже строит свои собственные планы, воспользовавшись расколом величайших героев Земли...

PG-13: детям до 13 лет просмотр не желателен

Качество: HDRip (Исходник: BDRip 1080p)
Продолжительность: 02:27:41

Формат: MP4
Видео кодек: H.264
Аудио кодек: AAC-LC
Свойства видео: 640x266 (2:40:1), 23.976 fps, 600 kbps (0.147 bit/pixel)
Свойства аудио: 48.0 KHz, 2 ch, 128 kbps
General
Complete name : Captain.America.Civil.War.2016.D.HDRip от Kaztorrents.mp4
Format : MPEG-4
Format profile : Base Media
Codec ID : isom
File size : 773 MiB
Duration : 2h 27mn
Overall bit rate mode : Variable
Overall bit rate : 732 Kbps
Encoded date : UTC 2016-08-30 18:14:08
Tagged date : UTC 2016-08-30 18:14:08

Video
ID : 1
Format : AVC
Format/Info : Advanced Video Codec
Format profile : [email protected]
Format settings, CABAC : Yes
Format settings, ReFrames : 9 frames
Codec ID : avc1
Codec ID/Info : Advanced Video Coding
Duration : 2h 27mn
Bit rate : 600 Kbps
Maximum bit rate : 2 408 Kbps
Width : 640 pixels
Height : 266 pixels
Display aspect ratio : 2.40:1
Frame rate mode : Constant
Frame rate : 23.976 fps
Color space : YUV
Chroma subsampling : 4:2:0
Bit depth : 8 bits
Scan type : Progressive
Bits/(Pixel*Frame) : 0.147
Stream size : 634 MiB (82%)
Title : [email protected]-DEV-rev248-g39d5978-master
Writing library : x264 core 146 r2538 121396c
Encoding settings : cabac=1 / ref=9 / deblock=1:0:0 / analyse=0x3:0x113 / me=umh / subme=11 / psy=1 / psy_rd=1.00:0.00 / mixed_ref=1 / me_range=32 / chroma_me=1 / trellis=2 / 8x8dct=1 / cqm=0 / deadzone=21,11 / fast_pskip=0 / chroma_qp_offset=-2 / threads=6 / lookahead_threads=1 / sliced_threads=0 / nr=0 / decimate=1 / interlaced=0 / bluray_compat=0 / constrained_intra=0 / bframes=9 / b_pyramid=2 / b_adapt=2 / b_bias=0 / direct=3 / weightb=1 / open_gop=0 / weightp=2 / keyint=240 / keyint_min=23 / scenecut=40 / intra_refresh=0 / rc_lookahead=40 / rc=2pass / mbtree=0 / bitrate=600 / ratetol=1.0 / qcomp=0.60 / qpmin=0 / qpmax=69 / qpstep=4 / cplxblur=20.0 / qblur=0.5 / vbv_maxrate=14000 / vbv_bufsize=14000 / nal_hrd=none / filler=0 / ip_ratio=1.40 / pb_ratio=1.30 / aq=1:1.00
Encoded date : UTC 2016-08-30 18:14:08
Tagged date : UTC 2016-08-30 18:14:52

Audio
ID : 2
Format : AAC
Format/Info : Advanced Audio Codec
Format profile : LC
Codec ID : 40
Duration : 2h 27mn
Bit rate mode : Variable
Bit rate : 128 Kbps
Maximum bit rate : 181 Kbps
Channel(s) : 2 channels
Channel positions : Front: L R
Sampling rate : 48.0 KHz
Compression mode : Lossy
Stream size : 135 MiB (17%)
Encoded date : UTC 2016-08-30 11:40:17
Tagged date : UTC 2016-08-30 18:14:52
x264 [info]: using SAR=1/1
x264 [info]: using cpu capabilities: MMX2 SSE2Fast SSSE3 SSE4.2 AVX
x264 [info]: profile High, level 4.1
x264 [info]: frame I:2190 Avg QP:16.24 size: 21953
x264 [info]: frame P:55387 Avg QP:19.60 size: 5953
x264 [info]: frame B:154897 Avg QP:21.67 size: 1852
x264 [info]: consecutive B-frames: 4.5% 4.8% 13.1% 34.8% 13.5% 16.7% 7.2% 3.8% 0.8% 0.7%
x264 [info]: mb I I16..4: 4.8% 63.3% 31.9%
x264 [info]: mb P I16..4: 1.2% 10.0% 3.0% P16..4: 31.3% 35.5% 11.2% 0.0% 0.0% skip: 7.9%
x264 [info]: mb B I16..4: 0.1% 1.1% 0.3% B16..8: 34.0% 18.2% 2.7% direct: 3.7% skip:39.9% L0:40.8% L1:47.7% BI:11.5%
x264 [info]: 8x8 transform intra:69.4% inter:59.1%
x264 [info]: direct mvs spatial:97.3% temporal:2.7%
x264 [info]: coded y,uvDC,uvAC intra: 82.2% 66.5% 34.7% inter: 15.0% 8.7% 1.4%
x264 [info]: i16 v,h,dc,p: 16% 19% 4% 61%
x264 [info]: i8 v,h,dc,ddl,ddr,vr,hd,vl,hu: 9% 9% 5% 9% 13% 12% 14% 12% 16%
x264 [info]: i4 v,h,dc,ddl,ddr,vr,hd,vl,hu: 12% 11% 5% 8% 13% 12% 13% 10% 14%
x264 [info]: i8c dc,h,v,p: 30% 35% 19% 15%
x264 [info]: Weighted P-Frames: Y:3.4% UV:1.4%
x264 [info]: ref P L0: 56.0% 10.8% 14.0% 6.2% 4.4% 3.3% 2.6% 1.4% 1.1% 0.2% 0.0%
x264 [info]: ref B L0: 77.0% 12.6% 5.1% 2.2% 1.4% 1.0% 0.5% 0.2%
x264 [info]: ref B L1: 92.6% 7.4%
x264 [info]: kb/s:600.06


Трекер:  [ 30-Авг-2016 21:00 ]

  

Скачать .torrent

Размер .torrent файла 15 KB


Размер: 773 MB
Хэш (hash) релиза: fea0591ad9c1dd772783fe1cc9f543aea15dc724

Торренты, похожие на [VIDEO] Первый мститель: Противостояние Captain America: Civil War скачать торрент

Форум Название Автор Размер S L Добавлен
Видео (Фильмы/Клипы) ·· [VIDEO] Первый мститель: Противостояние / Captain America: Civil War (Энтони Руссо, Джо Руссо / Anthony Russo, Joe Russo) [2016, фантастика, боевик, приключения, BDRip] [MP4, 1280x] Galfimbul 21556465402.01 GB 0 0 1477813024

10:37

30-Окт-16

Еще никто не оставлял запись к записи скачать торрент [VIDEO] Первый мститель: Противостояние Captain America: Civil War . Будь первым!

!Обратная связь