Télécharger | Tian Jing | Télécharger Part 9

Скачать через торрент [MULT] Бивис и Батт-хед Beavis and Butt-head бесплатно русская версия torrent активатор

Статистика раздачи
Размер:  789 MB   |    Зарегистрирован:  1 год 10 месяцев   |    .torrent скачан:  39 раз   |   
Раздают:  1  
   
загрузка...
 
Автор Сообщение

Galfimbul

avatar Galfimbul


Бивис и Батт-хед / Beavis and Butt-head8 сезон
Год выпуска: 2011
Страна: США
Жанр: мультсериал, комедия
Продолжительность: 00:10:00 / 00:20:00
Перевод: Одноголосый закадровый (ID-Daemon)
Режиссер: Майк Джадж / Mike Judge
Описание: Бивис и Батхед - самый загадочный американский комедийный сериал. А точнее это анекдотичный сериал. Постоянная игра слов, тонкие намеки и множество редчайших сленговых выражений делают сериал очень сложным в переводе. Майк Джадж создал своих героев чтобы высмеять и поиздеваться над вырождающейся американской нацией, над пассивным, нажирающимся фастфудом взрослым поколением и стремительным отупением молодежи. Неудивительно что он подвергался многочисленным нападкам. До сих пор сериал официально не выпущен полностью ни в одной стране мира.
Качество: SATRip
Формат: 3GP
Видео кодек: XviD
Аудио кодек: AAC
Видео: XviD, 320x240 (4:3), 320 Kbps, 23,976 fps
Аудио: AAC, 2 ch, 128 Kbps, 48 KHz
Полное имя : D:\Раздачи\Beavis and Butt-head (Season 8) ID-Daemon\8x01 Werewolves of Highland.3gpФормат : MPEG-4Профиль формата : 3GPP Media Release 4Идентификатор кодека : 3gp4 (isom/iso2/3gp4)Размер файла : 39,0 МбайтПродолжительность : 12 м.Режим общего битрейта : ПостоянныйОбщий поток : 453 Кбит/сек

ВидеоИдентификатор : 1Формат : MPEG-4 VisualПрофиль формата : [email protected]Параметр BVOP формата : НетПараметр QPel формата : НетПараметр GMC формата : Без точки переходаПараметр матрицы формата : Default (H.263)Идентификатор кодека : 20Продолжительность : 12 м.Вид битрейта : ПостоянныйБитрейт : 320 Кбит/секШирина : 320 пикселейВысота : 240 пикселейСоотношение сторон : 4:3Режим частоты кадров : ПостоянныйЧастота кадров : 23,976 (24000/1001) кадра/секЦветовое пространство : YUVСубдискретизация насыщенности : 4:2:0Битовая глубина : 8 битТип развёртки : ПрогрессивнаяМетод сжатия : С потерямиБит/(Пиксели*Кадры) : 0.174Размер потока : 27,6 Мбайт (71%)Библиотека кодирования : XviD 1.2.1 (UTC 2008-12-04)

АудиоИдентификатор : 2Формат : AACФормат/Информация : Advanced Audio CodecПрофиль формата : LCИдентификатор кодека : 40Продолжительность : 12 м.Вид битрейта : ПостоянныйБитрейт : 128 Кбит/секКаналы : 2 каналаРасположение каналов : Front: L RЧастота : 48,0 КГцЧастота кадров : 46,875 кадров/сек (1024 spf)Метод сжатия : С потерямиРазмер потока : 11,0 Мбайт (28%)


Трекер:  [ 29-Авг-2016 15:00 ]

  

Скачать .torrent

Размер .torrent файла 17 KB


Размер: 789 MB
Хэш (hash) релиза: 04fcd78c513c9039843988b71efbd10cd71d4530

Еще никто не оставлял запись к записи скачать торрент [MULT] Бивис и Батт-хед Beavis and Butt-head . Будь первым!

!Обратная связь