film de Ron Clements | Soul Land | Diploma Courses

Скачать через торрент [SERIAL] Потерянная комната The Lost Room бесплатно русская версия torrent активатор

Статистика раздачи
Размер:  2.19 GB   |    Зарегистрирован:  1 год 10 месяцев   |    .torrent скачан:  43 раза   |   
Раздают:  1  
   
загрузка...
 
Автор Сообщение

Galfimbul

avatar Galfimbul


Потерянная комната / The Lost Room1 сезон
Год выпуска: 2006
Страна: США
Жанр: фантастика, фэнтези, боевик, детектив
Продолжительность: 04:22:10 (~01:30:00 серия)
Перевод: Профессиональный (многоголосый закадровый)
Режиссер: Крэйг Р. Бэксли / Craig R. Baxley
В ролях: Питер Краузе, Джулианна Маргулис, Питер Джекобсон, Деннис Кристофер, Эйприл Грэйс, Эль Фаннинг, Кевин Поллак, Бенжамин Петри, Джейсон Дуглас, Кристофер Бауэр
Описание: Что если весь мир устроен не так просто, как нам кажется? Что если самые простые бытовые предметы обладают свойствами, которые не поддаются объяснению? И что если самый близкий Вам человек оказался в плену этих мистических событий?
Предлагаем вам присоединиться к детективу Джо Миллеру и другим героям новейшего мини-сериала «Потерянная комната» и узнать всю правду о том, что случилось в десятом номере мотеля «Саншайн» и как это изменило судьбу всего мира.
Качество: WEBRip
Формат: MP4
Видео: MPEG-4 Visual, 640x360 (16:9), 1080 Kbps, 23,976 fps
Аудио: Русский, AAC, 2 ch, 128 Kbps, 48 KHz
ОбщееПолное имя : D:\Раздачи\The.Lost.Room.WEBRrip.640x\1x01 - The Key and the Clock.mp4Формат : MPEG-4Профиль формата : Base Media / Version 2Идентификатор кодека : mp42 (isom/mp42/3gp5)Размер файла : 751 МбайтПродолжительность : 1 ч. 27 м.Режим общего битрейта : ПеременныйОбщий поток : 1198 Кбит/секДата кодирования : UTC 2016-08-22 06:19:19Дата пометки : UTC 2016-08-22 06:19:19

ВидеоИдентификатор : 201Формат : MPEG-4 VisualПрофиль формата : [email protected]Параметр BVOP формата : НетПараметр QPel формата : НетПараметр GMC формата : Без точки переходаПараметр матрицы формата : Default (H.263)Идентификатор кодека : 20Продолжительность : 1 ч. 27 м.Вид битрейта : ПеременныйБитрейт : 1070 Кбит/секМаксимальный битрейт : 7543 Кбит/секШирина : 640 пикселейВысота : 360 пикселейСоотношение сторон : 16:9Режим частоты кадров : ПостоянныйЧастота кадров : 23,976 (24000/1001) кадра/секЦветовое пространство : YUVСубдискретизация насыщенности : 4:2:0Битовая глубина : 8 битТип развёртки : ПрогрессивнаяМетод сжатия : С потерямиБит/(Пиксели*Кадры) : 0.194Размер потока : 671 Мбайт (89%)Библиотека кодирования : Lavc52.30.2Дата кодирования : UTC 2016-08-22 06:19:19Дата пометки : UTC 2016-08-22 06:20:32

АудиоИдентификатор : 101Формат : AACФормат/Информация : Advanced Audio CodecПрофиль формата : LCИдентификатор кодека : 40Продолжительность : 1 ч. 27 м.Вид битрейта : ПеременныйБитрейт : 125 Кбит/секМаксимальный битрейт : 227 Кбит/секКаналы : 2 каналаРасположение каналов : Front: L RЧастота : 48,0 КГцЧастота кадров : 46,875 кадров/сек (1024 spf)Метод сжатия : С потерямиРазмер потока : 78,5 Мбайт (10%)Дата кодирования : UTC 2016-08-22 06:20:20Дата пометки : UTC 2016-08-22 06:20:32

Прочее #1Идентификатор : 2Тип : Object descriptionФормат : SystemИдентификатор кодека : 1Продолжительность : 1 с. 0 мс.Дата кодирования : UTC 2016-08-22 06:20:32Дата пометки : UTC 2016-08-22 06:20:32

Прочее #2Идентификатор : 1Тип : Scene descriptionФормат : System CoreИдентификатор кодека : 2Продолжительность : 1 с. 0 мс.Дата кодирования : UTC 2016-08-22 06:20:32Дата пометки : UTC 2016-08-22 06:20:32


Трекер:  [ 24-Авг-2016 16:00 ]

  

Скачать .torrent

Размер .torrent файла 11 KB


Размер: 2.19 GB
Хэш (hash) релиза: 20d94b374cb8211eb04be03d3411b5706806b571

Еще никто не оставлял запись к записи скачать торрент [SERIAL] Потерянная комната The Lost Room . Будь первым!

!Обратная связь