Bones 8.5 | Legion (2ª Temporada) [Adic. Episodio 11] | Tools of Titans (2016) by Timothy Ferriss [Dr.Soc]

Скачать через торрент [MULT] Из личной жизни Братьев Пилотов Братья Пилоты... бесплатно русская версия torrent активатор

Статистика раздачи
Размер:  281 MB   |    Зарегистрирован:  1 год 11 месяцев   |    .torrent скачан:  32 раза   |   
Раздают:  1  
   
загрузка...
 
Автор Сообщение

Galfimbul

avatar Galfimbul


Из личной жизни Братьев Пилотов.

Год выпуска: 1995-1996
Страна: Россия (Студия ,,Пилот ")
Жанр: юмор, анимация
Перевод: Не требуется
Cубтитры: нет
Режиссеры: Сергей Гордеев, Васико Бедошвили, Александр Татарский, Алексей Алексеев, Игорь Вейштагин
Роли озвучивали: Александр Пожаров, Ефим Шифрин, Всеволод Абдулов
1. Братья Пилоты иногда ловят рыбу. 1996, реж. Васико Бедошвили.
2. Братья Пилоты вдруг решили поохотиться. 1996, реж. Сергей Гордеев.
3. Братья Пилоты по вечерам пьют чай. 1996, реж. Валерий Качаев, Андрей Колпин.
4. Братья Пилоты готовят на завтрак макарончики. 1996, реж. Александр Татарский.
5. Братья Пилоты показывают друг другу новогодние фокусы. 1996, реж. Леонид Стульев, Николай Козлов.
6. Братья Пилоты снимают клип для MTV. 1995, реж. Алексей Алексеев, Игорь Вейштагин.

В серии "Братья Пилоты снимают клип для MTV" - использована композиция "My new black Benzo" группы "U-Free".


Качество: VHSRip / исходники: VHS, VHSRip
Формат: MP4
Видео кодек: H.264
Аудио кодек: AAC
Видео: 468x360, 470х360, 480x360 AR:4/3 1080 kbps 25 fps
Аудио: 2ch 48 kHz 128 kbps
avs [info]: 468x360p 1:1 @ 25/1 fps (cfr)
x264 [info]: using SAR=1/1
x264 [info]: using cpu capabilities: MMX2 SSE2Fast SSSE3 SSE4.2 LZCNT
x264 [info]: profile High, level 4.1

x264 [info]: frame I:54 Avg QP:23.19 size: 27025
x264 [info]: frame P:1657 Avg QP:26.43 size: 11451
x264 [info]: frame B:6225 Avg QP:29.49 size: 3607
x264 [info]: consecutive B-frames: 1.5% 1.5% 8.0% 28.2% 16.7% 16.6% 10.3% 8.5% 8.7%
x264 [info]: mb I I16..4: 5.8% 66.3% 27.9%
x264 [info]: mb P I16..4: 1.4% 8.2% 3.6% P16..4: 33.1% 35.4% 15.3% 1.9% 0.2% skip: 1.0%
x264 [info]: mb B I16..4: 0.2% 1.6% 0.7% B16..8: 35.2% 22.0% 3.8% direct: 7.3% skip:29.2% L0:50.2% L1:35.9% BI:14.0%
x264 [info]: 8x8 transform intra:63.7% inter:61.2%
x264 [info]: direct mvs spatial:94.8% temporal:5.2%
x264 [info]: coded y,uvDC,uvAC intra: 83.2% 87.0% 56.1% inter: 30.2% 40.7% 8.2%
x264 [info]: i16 v,h,dc,p: 32% 27% 5% 35%
x264 [info]: i8 v,h,dc,ddl,ddr,vr,hd,vl,hu: 12% 7% 6% 11% 14% 15% 11% 13% 12%
x264 [info]: i4 v,h,dc,ddl,ddr,vr,hd,vl,hu: 17% 14% 5% 8% 12% 12% 10% 10% 13%
x264 [info]: i8c dc,h,v,p: 28% 32% 17% 23%
x264 [info]: Weighted P-Frames: Y:30.0% UV:17.5%
x264 [info]: ref P L0: 35.7% 11.0% 19.1% 9.4% 8.0% 5.9% 6.2% 3.8% 0.8% 0.0%
x264 [info]: ref B L0: 60.6% 17.1% 9.2% 5.5% 4.1% 2.7% 0.9%
x264 [info]: ref B L1: 92.1% 7.9%
x264 [info]: kb/s:1080.76

encoded 7936 frames, 9.74 fps, 1080.76 kb/s
General
Complete name : D:\Torrents\Из личной жизни Братьев Пилотов.1995-1996.VHSRip.x264.640x\Brat'ya Piloty Chay.mp4
Format : MPEG-4
Format profile : Base Media
Codec ID : isom
File size : 46.0 MiB
Duration : 5mn 17s
Overall bit rate mode : Variable
Overall bit rate : 1 216 Kbps
Movie name : Brat'ya Piloty Chay
ContentType : Short Film
Encoded date : UTC 2016-08-19 07:56:18
Tagged date : UTC 2016-08-19 07:56:19
Writing application : MkvToMp4 version: 0.224 (x64)

Video
ID : 1
Format : AVC
Format/Info : Advanced Video Codec
Format profile : [email protected]
Format settings, CABAC : Yes
Format settings, ReFrames : 8 frames
Codec ID : avc1
Codec ID/Info : Advanced Video Coding
Duration : 5mn 17s
Bit rate : 1 080 Kbps
Maximum bit rate : 2 831 Kbps
Width : 468 pixels
Height : 360 pixels
Display aspect ratio : 4:3
Frame rate mode : Constant
Frame rate : 25.000 fps
Color space : YUV
Chroma subsampling : 4:2:0
Bit depth : 8 bits
Scan type : Progressive
Bits/(Pixel*Frame) : 0.256
Stream size : 40.9 MiB (89%)
Title : 264_GPAC0.5.2_DEV_rev248_g39d5978_master
Writing library : x264 core 148 r2705 3f5ed56
Encoding settings : cabac=1 / ref=8 / deblock=1:-2:-2 / analyse=0x3:0x133 / me=umh / subme=11 / psy=1 / psy_rd=0.80:0.00 / mixed_ref=1 / me_range=48 / chroma_me=1 / trellis=2 / 8x8dct=1 / cqm=0 / deadzone=21,11 / fast_pskip=0 / chroma_qp_offset=-2 / threads=3 / lookahead_threads=1 / sliced_threads=0 / nr=0 / decimate=0 / interlaced=0 / bluray_compat=0 / constrained_intra=0 / bframes=8 / b_pyramid=2 / b_adapt=2 / b_bias=0 / direct=3 / weightb=1 / open_gop=0 / weightp=2 / keyint=250 / keyint_min=25 / scenecut=40 / intra_refresh=0 / rc_lookahead=60 / rc=2pass / mbtree=1 / bitrate=1080 / ratetol=1.0 / qcomp=0.60 / qpmin=0 / qpmax=69 / qpstep=4 / cplxblur=20.0 / qblur=0.5 / ip_ratio=1.40 / aq=1:0.90
Language : English
Encoded date : UTC 2016-08-19 07:56:18
Tagged date : UTC 2016-08-19 07:56:18
Color range : Limited
Color primaries : BT.601 PAL
Transfer characteristics : BT.470 System B, BT.470 System G
Matrix coefficients : BT.601

Audio
ID : 2
Format : AAC
Format/Info : Advanced Audio Codec
Format profile : LC
Codec ID : 40
Duration : 5mn 16s
Bit rate mode : Variable
Bit rate : 128 Kbps
Maximum bit rate : 139 Kbps
Channel(s) : 2 channels
Channel positions : Front: L R
Sampling rate : 48.0 KHz
Compression mode : Lossy
Stream size : 4.84 MiB (11%)
Language : Russian
Encoded date : UTC 2016-08-19 07:56:18
Tagged date : UTC 2016-08-19 07:56:18


Трекер:  [ 19-Авг-2016 09:00 ]

  

Скачать .torrent

Размер .torrent файла 12 KB


Размер: 281 MB
Хэш (hash) релиза: c954b6d413f91f4b660e44050e0645e9882a861e

Еще никто не оставлял запись к записи скачать торрент [MULT] Из личной жизни Братьев Пилотов Братья Пилоты... . Будь первым!

!Обратная связь