Melissa - Fresh (1992) [FLAC] [EAC] [LOG] [CUE]
Animation Movies

Скачать через торрент [MULT] Смешарики. Легенда о золотом драконе бесплатно русская версия torrent активатор

Статистика раздачи
Размер:  1.05 GB   |    Зарегистрирован:  1 год 8 месяцев   |    .torrent скачан:  45 раз   |   
Раздают:  1  
   
загрузка...
 
Автор Сообщение

Galfimbul

avatar Galfimbul


Смешарики. Легенда о золотом драконе
«Предпоследняя надежда человечества»

Год выпуска: 2016
Страна: Россия
Жанр: мультфильм, приключения, комедия
Продолжительность: 01:20:15
Перевод: не требуется
Cубтитры: нет
Режиссер: Денис Чернов
Роли озвучивали: Михаил Черняк, Сергей Мардарь, Антон Виноградов, Владимир Постников, Светлана Письмиченко, Вадим Бочанов, Гарик Харламов, Дмитрий Нагиев, Елена Шульман, Владимир Маслаков и другие .
Описание: Выдающийся учёный и его команда отправляются в самое сердце диких джунглей, где их ждут опасные приключения, свирепые туземцы и расхитители гробниц, до зубов вооруженные гаджетами.
Релиз группы
Качество: HDRip / <a href="viewtopic.php?t=5262366" class="postLink">рип с BDRip 720p</a>
Формат: MP4
Видео кодек: H.264
Аудио кодек: AAC
Видео: 960x400 AR:2.40 1740 kbps 23.976 fps
Аудио: [Russian] 2ch 48 kHz 128 kbps
avs [info]: 960x400p 1:1 @ 2997/125 fps (cfr)
x264 [info]: using SAR=1/1
x264 [info]: using cpu capabilities: MMX2 SSE2Fast SSSE3 SSE4.2 LZCNT
x264 [info]: profile High, level 4.1

x264 [info]: frame I:1035 Avg QP:17.50 size: 80915
x264 [info]: frame P:32951 Avg QP:22.28 size: 17670
x264 [info]: frame B:81475 Avg QP:26.07 size: 4674
x264 [info]: consecutive B-frames: 6.6% 5.9% 15.1% 30.0% 12.7% 24.8% 2.7% 2.2%
x264 [info]: mb I I16..4: 5.8% 62.6% 31.6%
x264 [info]: mb P I16..4: 1.8% 8.8% 2.2% P16..4: 28.4% 29.0% 12.6% 0.0% 0.0% skip:17.2%
x264 [info]: mb B I16..4: 0.2% 1.4% 0.3% B16..8: 26.9% 12.3% 3.1% direct: 2.4% skip:53.2% L0:40.4% L1:44.6% BI:14.9%
x264 [info]: 8x8 transform intra:68.5% inter:56.4%
x264 [info]: direct mvs spatial:89.8% temporal:10.2%
x264 [info]: coded y,uvDC,uvAC intra: 75.4% 82.3% 61.1% inter: 16.3% 18.1% 11.5%
x264 [info]: i16 v,h,dc,p: 8% 20% 5% 67%
x264 [info]: i8 v,h,dc,ddl,ddr,vr,hd,vl,hu: 6% 9% 6% 9% 14% 12% 16% 11% 17%
x264 [info]: i4 v,h,dc,ddl,ddr,vr,hd,vl,hu: 8% 11% 6% 8% 14% 12% 15% 10% 16%
x264 [info]: i8c dc,h,v,p: 37% 27% 14% 21%
x264 [info]: Weighted P-Frames: Y:2.8% UV:2.1%
x264 [info]: ref P L0: 60.7% 13.6% 10.3% 5.3% 2.9% 3.0% 2.1% 1.9% 0.2% 0.0%
x264 [info]: ref B L0: 83.1% 7.5% 4.2% 2.0% 1.6% 1.0% 0.5%
x264 [info]: ref B L1: 95.8% 4.2%
x264 [info]: kb/s:1739.02

encoded 115461 frames, 8.00 fps, 1739.02 kb/s

GeneralComplete name : D:\Torrents\Смешарики. Легенда о золотом драконе.2016.HDRip.x264.960x.rip by Frost O.S.mp4Format : MPEG-4Format profile : Base MediaCodec ID : isomFile size : 1.05 GiBDuration : 1h 20mnOverall bit rate mode : VariableOverall bit rate : 1 875 KbpsMovie name : Смешарики Легенда о золотом драконе 2016 HDRip x264 960x rip by Frost O SGenre : AnimationContentType : Short FilmEncoded date : UTC 2016-08-17 12:48:11Tagged date : UTC 2016-08-17 12:49:21Writing application : MkvToMp4 version: 0.224 (x64)Cover : YesComment : rip by Frost O.SLongDescription : Выдающийся учёный и его команда отправляются в самое сердце диких джунглей, где их ждут опасные приключения, свирепые туземцы и расхитители гробниц, до зубов вооруженные гаджетами.

VideoID : 1Format : AVCFormat/Info : Advanced Video CodecFormat profile : [email protected] settings, CABAC : YesFormat settings, ReFrames : 8 framesCodec ID : avc1Codec ID/Info : Advanced Video CodingDuration : 1h 20mnBit rate : 1 740 KbpsMaximum bit rate : 12.3 MbpsWidth : 960 pixelsHeight : 400 pixelsDisplay aspect ratio : 2.40:1Frame rate mode : ConstantFrame rate : 23.976 fpsColor space : YUVChroma subsampling : 4:2:0Bit depth : 8 bitsScan type : ProgressiveBits/(Pixel*Frame) : 0.189Stream size : 998 MiB (93%)Writing library : x264 core 148 r2705 3f5ed56Encoding settings : cabac=1 / ref=8 / deblock=1:-1:-1 / analyse=0x3:0x113 / me=umh / subme=11 / psy=1 / psy_rd=1.00:0.00 / mixed_ref=1 / me_range=32 / chroma_me=1 / trellis=2 / 8x8dct=1 / cqm=0 / deadzone=21,11 / fast_pskip=0 / chroma_qp_offset=-2 / threads=3 / lookahead_threads=1 / sliced_threads=0 / nr=0 / decimate=0 / interlaced=0 / bluray_compat=0 / constrained_intra=0 / bframes=7 / b_pyramid=2 / b_adapt=2 / b_bias=0 / direct=3 / weightb=1 / open_gop=0 / weightp=2 / keyint=250 / keyint_min=23 / scenecut=40 / intra_refresh=0 / rc_lookahead=60 / rc=2pass / mbtree=1 / bitrate=1740 / ratetol=1.0 / qcomp=0.60 / qpmin=0 / qpmax=69 / qpstep=4 / cplxblur=20.0 / qblur=0.5 / ip_ratio=1.40 / aq=1:0.50Language : EnglishEncoded date : UTC 2016-08-17 12:48:11Tagged date : UTC 2016-08-17 12:48:26Color range : LimitedColor primaries : BT.709Transfer characteristics : BT.709Matrix coefficients : BT.709

AudioID : 2Format : AACFormat/Info : Advanced Audio CodecFormat profile : LCCodec ID : 40Duration : 1h 20mnBit rate mode : VariableBit rate : 128 KbpsMaximum bit rate : 135 KbpsChannel(s) : 2 channelsChannel positions : Front: L RSampling rate : 48.0 KHzCompression mode : LossyStream size : 73.5 MiB (7%)Language : RussianEncoded date : UTC 2016-08-17 12:48:24Tagged date : UTC 2016-08-17 12:48:26


Трекер:  [ 17-Авг-2016 15:30 ]

  

Скачать .torrent

Размер .torrent файла 11 KB


Размер: 1.05 GB
Хэш (hash) релиза: d83d8dc31d472f57d9d22c4b27c84a73f5d552c3

Торренты, похожие на [MULT] Смешарики. Легенда о золотом драконе скачать торрент

Форум Название Автор Размер S L Добавлен
Видео (Фильмы/Клипы) ·· [MULT] Смешарики. Легенда о золотом драконе (Денис Чернов) [2016, мультфильм, приключения, комедия, HDRip] [3GP, 320x] Galfimbul 289239562276 MB 0 0 1471440748

16:32

17-Авг-16

Видео (Фильмы/Клипы) ·· [MULT] Смешарики. Легенда о золотом драконе (Денис Чернов) [2016, мультфильм, приключения, комедия, HDRip] [MP4, 480x] Galfimbul 382848409365 MB 0 0 1471440725

16:32

17-Авг-16

Еще никто не оставлял запись к записи скачать торрент [MULT] Смешарики. Легенда о золотом драконе . Будь первым!

!Обратная связь