Tous les animes et mangas | Сэмюэл Донован | WWE24 S01E17 Hardys

Скачать через торрент [MULT] Смешарики. Легенда о золотом драконе бесплатно русская версия torrent активатор

Статистика раздачи
Размер:  365 MB   |    Зарегистрирован:  1 год 11 месяцев   |    .torrent скачан:  35 раз   |   
Раздают:  1  
   
загрузка...
 
Автор Сообщение

Galfimbul

avatar Galfimbul


Смешарики. Легенда о золотом драконе
«Предпоследняя надежда человечества»

Год выпуска: 2016
Страна: Россия
Жанр: мультфильм, приключения, комедия
Продолжительность: 01:20:15
Перевод: не требуется
Cубтитры: нет
Режиссер: Денис Чернов
Роли озвучивали: Михаил Черняк, Сергей Мардарь, Антон Виноградов, Владимир Постников, Светлана Письмиченко, Вадим Бочанов, Гарик Харламов, Дмитрий Нагиев, Елена Шульман, Владимир Маслаков и другие .
Описание: Выдающийся учёный и его команда отправляются в самое сердце диких джунглей, где их ждут опасные приключения, свирепые туземцы и расхитители гробниц, до зубов вооруженные гаджетами.
Релиз группы
Качество: HDRip / <a href="viewtopic.php?t=5262366" class="postLink">рип с BDRip 720p</a>
Формат: MP4
Видео кодек: XviD
Аудио кодек: AAC
Видео: 480x200 AR:2.40 500 kbps 23.976 fps
Аудио: [Russian] 2ch 48 kHz 128 kbps
GeneralComplete name : D:\Torrents\Смешарики. Легенда о золотом драконе.2016.HDRip.XviD.480x.rip by Frost O.S.mp4Format : MPEG-4Format profile : Base MediaCodec ID : isomFile size : 365 MiBDuration : 1h 20mnOverall bit rate mode : VariableOverall bit rate : 636 KbpsMovie name : Смешарики Легенда о золотом драконе 2016 HDRip XviD 480x rip by Frost O SGenre : AnimationContentType : Short FilmEncoded date : UTC 2016-08-17 12:50:30Tagged date : UTC 2016-08-17 12:50:45Writing application : MkvToMp4 version: 0.224 (x64)Cover : YesComment : rip by Frost O.SLongDescription : Выдающийся учёный и его команда отправляются в самое сердце диких джунглей, где их ждут опасные приключения, свирепые туземцы и расхитители гробниц, до зубов вооруженные гаджетами.

VideoID : 1Format : MPEG-4 VisualFormat profile : Advanced [email protected] settings, BVOP : YesFormat settings, QPel : NoFormat settings, GMC : No warppointsFormat settings, Matrix : CustomCodec ID : 20Duration : 1h 20mnBit rate mode : VariableBit rate : 500 KbpsMaximum bit rate : 194 MbpsWidth : 480 pixelsHeight : 200 pixelsDisplay aspect ratio : 2.40:1Frame rate mode : VariableFrame rate : 23.976 fpsMinimum frame rate : 11.988 fpsMaximum frame rate : 23.976 fpsColor space : YUVChroma subsampling : 4:2:0Bit depth : 8 bitsScan type : ProgressiveCompression mode : LossyBits/(Pixel*Frame) : 0.217Stream size : 287 MiB (79%)Title : avi_GPAC0.5.2_DEV_rev248_g39d5978_masterWriting library : XviD 1.2.1 (UTC 2008-12-04)Language : EnglishTagged date : UTC 2016-08-17 12:50:34

AudioID : 2Format : AACFormat/Info : Advanced Audio CodecFormat profile : LCCodec ID : 40Duration : 1h 20mnBit rate mode : VariableBit rate : 128 KbpsMaximum bit rate : 135 KbpsChannel(s) : 2 channelsChannel positions : Front: L RSampling rate : 48.0 KHzCompression mode : LossyStream size : 73.5 MiB (20%)Language : RussianEncoded date : UTC 2016-08-17 12:50:32Tagged date : UTC 2016-08-17 12:50:34


Трекер:  [ 17-Авг-2016 15:30 ]

  

Скачать .torrent

Размер .torrent файла 14 KB


Размер: 365 MB
Хэш (hash) релиза: 6f8fcee1fdec6c154553a88a29b11b56cb2f06c0

Торренты, похожие на [MULT] Смешарики. Легенда о золотом драконе скачать торрент

Форум Название Автор Размер S L Добавлен
Видео (Фильмы/Клипы) ·· [MULT] Смешарики. Легенда о золотом драконе (Денис Чернов) [2016, мультфильм, приключения, комедия, HDRip] [3GP, 320x] Galfimbul 289239562276 MB 0 0 1471440748

16:32

17-Авг-16

Видео (Фильмы/Клипы) ·· [MULT] Смешарики. Легенда о золотом драконе (Денис Чернов) [2016, мультфильм, приключения, комедия, HDRip] [MP4, 960x] Galfimbul 11286582431.05 GB 0 0 1471440732

16:32

17-Авг-16

Еще никто не оставлял запись к записи скачать торрент [MULT] Смешарики. Легенда о золотом драконе . Будь первым!

!Обратная связь