Most Rated in Productivity | More Details | HD Views: 132 Reunion 2 The Bachelor Party(2016)

Скачать через торрент [MULT] Кунг-фу Панда 3 Kung Fu Panda 3 бесплатно русская версия torrent активатор

Статистика раздачи
Размер:  1.42 GB   |    Зарегистрирован:  1 год 11 месяцев   |    .torrent скачан:  32 раза   |   
Раздают:  1  
   
загрузка...
 
Автор Сообщение

Galfimbul

avatar Galfimbul


Кунг-фу Панда 3 / Kung Fu Panda 3
«Притяженья больше нет»

Год выпуска: 2016
Страна: США, Китай
Жанр: мультфильм, боевик, комедия, приключения, семейный
Продолжительность: 01:34:54
Перевод №1: Русский Профессиональный (полное дублирование) Blu-ray 3D BALTiC CEE
Перевод №2: Украинский Профессиональный (полное дублирование) Blu-ray 3D BALTiC CEE
Оригинальная дорожка: Есть
Cубтитры: Russian (Forced, iTunes), Russian (iTunes),Ukrainian (iTunes), English (iTunes)
Режиссеры: Алессандро Карлони / Alessandro Carloni, Дженнифер Ю / Jennifer Yuh Nelson
Роли озвучивали: Джек Блэк, Брайан Крэнстон, Дастин Хоффман, Анджелина Джоли, Дж.К. Симмонс, Джеки Чан, Сет Роген, Люси Лью, Дэвид Кросс, Кейт Хадсон и другие .
Роли дублировали: Михаил Галустян, Александр Новиков, Александр Хотченков, Ольга Зубкова, Сергей Чихачев, Диомид Виноградов, Денис Беспалый и другие .
Описание: Воссоединившись со своим давно потерянным отцом, По отправляется в тайный рай для панд, где его ожидает встреча с множеством веселых сородичей. Однако вскоре злодей Кай начинает зачистку — он уничтожает кунг-фу мастеров по всему Китаю.

По предстоит сделать невозможное — обучить боевому искусству деревню, полную его веселых, неуклюжих собратьев, и тем самым превратить их в отряд кунг-фу панд.

В эпизоде, где По обсуждает игру с пандами, четверых животных озвучили дети Анджелины Джоли — сыновья Пакс и Нокс и дочери Шайло и Захара (все носят фамилию Джоли-Питт).
Отец По должен был говорить голосом Джейми Кэмпбелла Бауэра, однако на озвучивание утвердили Брайана Крэнстона. Необходимо отметить, что ни один из них не озвучивал отца По в конце фильма «Кунг-фу Панда 2» (2011). Там этот персонаж говорит голосом Фреда Татаскьора, который также озвучил мастера Шифу в компьютерных играх франшизы и в мультсериале «Кунг-фу Панда: Удивительные легенды» (2011).
Это первый полнометражный американский анимационный фильм, созданный совместно с китайской студией. Треть фильма была создана в Китае, а всё остальное — на студии «DreamWorks Animation» в США.
Кая должен был озвучивать Мадс Миккельсен, но не смог ввиду плотного графика съёмок. В фильме этот персонаж говорит голосом Дж. К. Симмонса.
Премьерный показ фильма был назначен на 23 декабря 2015 года, но был перенесён на более поздний срок, чтобы избежать конкуренции с выходящим фильмом «Звёздные войны: Пробуждение силы» (2015).
Компании «DreamWorks Animation» и «Paramount Pictures» прекратили сотрудничество в 2012 году, так что это будет первый фильм серии, распространением которого занимается «20 Century Fox».
Режиссёр Дженнифер Ю наделила Кая сверхъестественными способностями. Вот как она впоследствии объясняла своё решение: «Тай Лунг был драчуном, лорд Шэнь отличался умом. Что было делать с отрицательным героем третьего фильма? Только дать ему сверхъестественные силы». «Кай» по-японски означает «бог».
Для Дж. К. Симмонса, голосом которого говорит Кай, это будет первая премьера в 2016 году. Второй станет полнометражный мультфильм «Зверополис».

Релиз группы
Качество: HDRip / <a href="viewtopic.php?t=5252407" class="postLink">рип с BDRip 1080p</a>
Формат: MP4
Видео кодек: H.264
Аудио кодек: AAC
Видео: 960x408 AR:2.35 1740 kbps 23.976 fps
Аудио №1: [Russian] 2ch 48 kHz 128 kbps [Dub] Профессиональный (полное дублирование) Blu-ray 3D BALTiC CEE
Аудио №2: [Ukrainian] 2ch 48 kHz 128 kbps [Dub] Профессиональный (полное дублирование) Blu-ray 3D BALTiC CEE
Аудио №3: [Original] 2ch 48 kHz 128 kbps (Английский)
avs [info]: 960x408p 1:1 @ 2997/125 fps (cfr)
x264 [info]: using SAR=1/1
x264 [info]: using cpu capabilities: MMX2 SSE2Fast SSSE3 SSE4.2 LZCNT
x264 [info]: profile High, level 4.1

x264 [info]: frame I:1351 Avg QP:18.29 size: 67572
x264 [info]: frame P:37732 Avg QP:21.90 size: 16850
x264 [info]: frame B:97453 Avg QP:23.44 size: 5245
x264 [info]: consecutive B-frames: 5.5% 5.6% 14.0% 33.7% 16.6% 18.7% 3.1% 2.2% 0.7%
x264 [info]: mb I I16..4: 5.7% 66.1% 28.1%
x264 [info]: mb P I16..4: 1.5% 10.1% 2.8% P16..4: 31.6% 30.1% 11.5% 0.0% 0.0% skip:12.5%
x264 [info]: mb B I16..4: 0.1% 1.2% 0.3% B16..8: 28.1% 15.2% 3.7% direct: 3.6% skip:47.7% L0:38.0% L1:46.6% BI:15.3%
x264 [info]: 8x8 transform intra:69.9% inter:57.1%
x264 [info]: direct mvs spatial:94.5% temporal:5.5%
x264 [info]: coded y,uvDC,uvAC intra: 82.9% 86.9% 61.0% inter: 17.4% 17.3% 8.3%
x264 [info]: i16 v,h,dc,p: 6% 18% 2% 75%
x264 [info]: i8 v,h,dc,ddl,ddr,vr,hd,vl,hu: 9% 7% 3% 10% 15% 13% 16% 11% 15%
x264 [info]: i4 v,h,dc,ddl,ddr,vr,hd,vl,hu: 11% 9% 4% 9% 15% 13% 15% 10% 14%
x264 [info]: i8c dc,h,v,p: 35% 25% 16% 24%
x264 [info]: Weighted P-Frames: Y:10.0% UV:8.2%
x264 [info]: ref P L0: 59.0% 12.0% 13.2% 5.1% 3.4% 3.0% 2.3% 1.7% 0.3% 0.0%
x264 [info]: ref B L0: 84.3% 7.5% 3.8% 1.8% 1.4% 0.8% 0.4%
x264 [info]: ref B L1: 96.1% 3.9%
x264 [info]: kb/s:1739.41

encoded 136536 frames, 6.94 fps, 1739.41 kb/s

GeneralComplete name : D:\Torrents\Kung Fu Panda 3.2016.HDRip.x264.960x.rip by Frost O.S.mp4Format : MPEG-4Format profile : Base MediaCodec ID : isomFile size : 1.42 GiBDuration : 1h 34mnOverall bit rate mode : VariableOverall bit rate : 2 139 KbpsMovie name : Kung Fu Panda 3 2016 HDRip x264 960x rip by Frost O SGenre : AnimationContentType : Short FilmEncoded date : UTC 2016-08-16 17:16:55Tagged date : UTC 2016-08-16 17:18:48Writing application : MkvToMp4 version: 0.224 (x64)Cover : YesComment : rip by Frost O.SLongDescription : Воссоединившись со своим давно потерянным отцом, По отправляется в тайный рай для панд, где его ожидает встреча с множеством веселых сородичей. Однако вскоре злодей Кай начинает зачистку — он уничтожает кунг-фу мастеров по всему Китаю. По предстоит сделать невозможное — обучить боевому искусству деревню, полную его веселых, неуклюжих собратьев, и тем самым превратить их в отряд кунг-фу панд.

VideoID : 1Format : AVCFormat/Info : Advanced Video CodecFormat profile : [email protected] settings, CABAC : YesFormat settings, ReFrames : 8 framesCodec ID : avc1Codec ID/Info : Advanced Video CodingDuration : 1h 34mnBit rate : 1 740 KbpsMaximum bit rate : 8 323 KbpsWidth : 960 pixelsHeight : 408 pixelsDisplay aspect ratio : 2.35:1Frame rate mode : ConstantFrame rate : 23.976 fpsColor space : YUVChroma subsampling : 4:2:0Bit depth : 8 bitsScan type : ProgressiveBits/(Pixel*Frame) : 0.185Stream size : 1.15 GiB (81%)Writing library : x264 core 148 r2705 3f5ed56Encoding settings : cabac=1 / ref=8 / deblock=1:-2:-2 / analyse=0x3:0x113 / me=umh / subme=11 / psy=1 / psy_rd=1.00:0.00 / mixed_ref=1 / me_range=32 / chroma_me=1 / trellis=2 / 8x8dct=1 / cqm=0 / deadzone=21,11 / fast_pskip=0 / chroma_qp_offset=-2 / threads=3 / lookahead_threads=1 / sliced_threads=0 / nr=0 / decimate=0 / interlaced=0 / bluray_compat=0 / constrained_intra=0 / bframes=8 / b_pyramid=2 / b_adapt=2 / b_bias=0 / direct=3 / weightb=1 / open_gop=0 / weightp=2 / keyint=250 / keyint_min=23 / scenecut=40 / intra_refresh=0 / rc=2pass / mbtree=0 / bitrate=1740 / ratetol=1.0 / qcomp=0.60 / qpmin=0 / qpmax=69 / qpstep=4 / cplxblur=20.0 / qblur=0.5 / ip_ratio=1.40 / pb_ratio=1.30 / aq=1:0.50Language : EnglishEncoded date : UTC 2016-08-16 17:16:55Tagged date : UTC 2016-08-16 17:17:30Color range : LimitedColor primaries : BT.709Transfer characteristics : BT.709Matrix coefficients : BT.709

Audio #1ID : 2Format : AACFormat/Info : Advanced Audio CodecFormat profile : LCCodec ID : 40Duration : 1h 34mnBit rate mode : VariableBit rate : 128 KbpsMaximum bit rate : 135 KbpsChannel(s) : 2 channelsChannel positions : Front: L RSampling rate : 48.0 KHzCompression mode : LossyStream size : 86.9 MiB (6%)Title : [Dub] / [Dub]Language : RussianEncoded date : UTC 2016-08-16 17:17:16Tagged date : UTC 2016-08-16 17:17:30

Audio #2ID : 3Format : AACFormat/Info : Advanced Audio CodecFormat profile : LCCodec ID : 40Duration : 1h 34mnBit rate mode : VariableBit rate : 128 KbpsMaximum bit rate : 135 KbpsChannel(s) : 2 channelsChannel positions : Front: L RSampling rate : 48.0 KHzCompression mode : LossyStream size : 86.9 MiB (6%)Title : [Dub] / [Dub]Language : UkrainianEncoded date : UTC 2016-08-16 17:17:19Tagged date : UTC 2016-08-16 17:17:30

Audio #3ID : 4Format : AACFormat/Info : Advanced Audio CodecFormat profile : LCCodec ID : 40Duration : 1h 34mnBit rate mode : VariableBit rate : 128 KbpsMaximum bit rate : 135 KbpsChannel(s) : 2 channelsChannel positions : Front: L RSampling rate : 48.0 KHzCompression mode : LossyStream size : 86.9 MiB (6%)Title : [Original] / [Original]Language : EnglishEncoded date : UTC 2016-08-16 17:17:21Tagged date : UTC 2016-08-16 17:17:30

Text #1ID : 5Format : Timed TextMuxing mode : sbtlCodec ID : tx3gDuration : 1h 34mnBit rate mode : VariableBit rate : 0 bpsStream size : 101 Bytes (0%)Title : Forced_ iTunes / Forced_ iTunesLanguage : RussianEncoded date : UTC 2016-08-16 17:17:29Tagged date : UTC 2016-08-16 17:17:30

Text #2ID : 6Format : Timed TextMuxing mode : sbtlCodec ID : tx3gDuration : 1h 34mnBit rate mode : VariableBit rate : 83 bpsStream size : 57.7 KiB (0%)Title : iTunes / iTunesLanguage : RussianEncoded date : UTC 2016-08-16 17:17:29Tagged date : UTC 2016-08-16 17:17:30

Text #3ID : 7Format : Timed TextMuxing mode : sbtlCodec ID : tx3gDuration : 1h 34mnBit rate mode : VariableBit rate : 87 bpsStream size : 60.2 KiB (0%)Title : iTunes / iTunesLanguage : UkrainianEncoded date : UTC 2016-08-16 17:17:29Tagged date : UTC 2016-08-16 17:17:30

Text #4ID : 8Format : Timed TextMuxing mode : sbtlCodec ID : tx3gDuration : 1h 22mnBit rate mode : VariableBit rate : 63 bpsStream size : 38.1 KiB (0%)Title : iTunes / iTunesLanguage : EnglishEncoded date : UTC 2016-08-16 17:17:29Tagged date : UTC 2016-08-16 17:17:30


Трекер:  [ 16-Авг-2016 22:00 ]

  

Скачать .torrent

Размер .torrent файла 14 KB


Размер: 1.42 GB
Хэш (hash) релиза: e9c14dc368df7477bdf2b494478af4f65e8ada9d

Еще никто не оставлял запись к записи скачать торрент [MULT] Кунг-фу Панда 3 Kung Fu Panda 3 . Будь первым!

!Обратная связь