tiny toions | Varney the Vampire 2 | Boku no Hero Academia S3

Скачать через торрент [MULT] Кунг-фу Панда 3 Kung Fu Panda 3 бесплатно русская версия torrent активатор

Статистика раздачи
Размер:  425 MB   |    Зарегистрирован:  1 год 11 месяцев   |    .torrent скачан:  437 раз   |   
Раздают:  1  
   
загрузка...
 
Автор Сообщение

Galfimbul

avatar Galfimbul


Кунг-фу Панда 3 / Kung Fu Panda 3
«Притяженья больше нет»

Год выпуска: 2016
Страна: США, Китай
Жанр: мультфильм, боевик, комедия, приключения, семейный
Продолжительность: 01:34:54
Перевод №1: Русский Профессиональный (полное дублирование) Blu-ray 3D BALTiC CEE
Cубтитры: нет
Режиссеры: Алессандро Карлони / Alessandro Carloni, Дженнифер Ю / Jennifer Yuh Nelson
Роли озвучивали: Джек Блэк, Брайан Крэнстон, Дастин Хоффман, Анджелина Джоли, Дж.К. Симмонс, Джеки Чан, Сет Роген, Люси Лью, Дэвид Кросс, Кейт Хадсон и другие .
Роли дублировали: Михаил Галустян, Александр Новиков, Александр Хотченков, Ольга Зубкова, Сергей Чихачев, Диомид Виноградов, Денис Беспалый и другие .
Описание: Воссоединившись со своим давно потерянным отцом, По отправляется в тайный рай для панд, где его ожидает встреча с множеством веселых сородичей. Однако вскоре злодей Кай начинает зачистку — он уничтожает кунг-фу мастеров по всему Китаю.

По предстоит сделать невозможное — обучить боевому искусству деревню, полную его веселых, неуклюжих собратьев, и тем самым превратить их в отряд кунг-фу панд.

В эпизоде, где По обсуждает игру с пандами, четверых животных озвучили дети Анджелины Джоли — сыновья Пакс и Нокс и дочери Шайло и Захара (все носят фамилию Джоли-Питт).
Отец По должен был говорить голосом Джейми Кэмпбелла Бауэра, однако на озвучивание утвердили Брайана Крэнстона. Необходимо отметить, что ни один из них не озвучивал отца По в конце фильма «Кунг-фу Панда 2» (2011). Там этот персонаж говорит голосом Фреда Татаскьора, который также озвучил мастера Шифу в компьютерных играх франшизы и в мультсериале «Кунг-фу Панда: Удивительные легенды» (2011).
Это первый полнометражный американский анимационный фильм, созданный совместно с китайской студией. Треть фильма была создана в Китае, а всё остальное — на студии «DreamWorks Animation» в США.
Кая должен был озвучивать Мадс Миккельсен, но не смог ввиду плотного графика съёмок. В фильме этот персонаж говорит голосом Дж. К. Симмонса.
Премьерный показ фильма был назначен на 23 декабря 2015 года, но был перенесён на более поздний срок, чтобы избежать конкуренции с выходящим фильмом «Звёздные войны: Пробуждение силы» (2015).
Компании «DreamWorks Animation» и «Paramount Pictures» прекратили сотрудничество в 2012 году, так что это будет первый фильм серии, распространением которого занимается «20 Century Fox».
Режиссёр Дженнифер Ю наделила Кая сверхъестественными способностями. Вот как она впоследствии объясняла своё решение: «Тай Лунг был драчуном, лорд Шэнь отличался умом. Что было делать с отрицательным героем третьего фильма? Только дать ему сверхъестественные силы». «Кай» по-японски означает «бог».
Для Дж. К. Симмонса, голосом которого говорит Кай, это будет первая премьера в 2016 году. Второй станет полнометражный мультфильм «Зверополис».

Релиз группы
Качество: HDRip / <a href="viewtopic.php?t=5252407" class="postLink">рип с BDRip 1080p</a>
Формат: MP4
Видео кодек: XviD
Аудио кодек: AAC
Видео: 480x200 AR:2.40 490 kbps 23.976 fps
Аудио: [Russian] 2ch 48 kHz 128 kbps [Dub] Профессиональный (полное дублирование) Blu-ray 3D BALTiC CEE
GeneralComplete name : D:\Torrents\Kung Fu Panda 3.2016.HDRip.XviD.480x.rip by Frost O.S.mp4Format : MPEG-4Format profile : Base MediaCodec ID : isomFile size : 425 MiBDuration : 1h 34mnOverall bit rate mode : VariableOverall bit rate : 626 KbpsMovie name : Kung Fu Panda 3 2016 HDRip XviD 480x rip by Frost O SGenre : AnimationContentType : Short FilmEncoded date : UTC 2016-08-16 17:20:33Tagged date : UTC 2016-08-16 17:20:48Writing application : MkvToMp4 version: 0.224 (x64)Cover : YesComment : rip by Frost O.SLongDescription : Воссоединившись со своим давно потерянным отцом, По отправляется в тайный рай для панд, где его ожидает встреча с множеством веселых сородичей. Однако вскоре злодей Кай начинает зачистку — он уничтожает кунг-фу мастеров по всему Китаю. По предстоит сделать невозможное — обучить боевому искусству деревню, полную его веселых, неуклюжих собратьев, и тем самым превратить их в отряд кунг-фу панд.

VideoID : 1Format : MPEG-4 VisualFormat profile : Advanced [email protected] settings, BVOP : YesFormat settings, QPel : NoFormat settings, GMC : No warppointsFormat settings, Matrix : CustomCodec ID : 20Duration : 1h 34mnBit rate mode : VariableBit rate : 490 KbpsMaximum bit rate : 4 163 KbpsWidth : 480 pixelsHeight : 200 pixelsDisplay aspect ratio : 2.40:1Frame rate mode : ConstantFrame rate : 23.976 fpsColor space : YUVChroma subsampling : 4:2:0Bit depth : 8 bitsScan type : ProgressiveCompression mode : LossyBits/(Pixel*Frame) : 0.213Stream size : 333 MiB (78%)Title : avi_GPAC0.5.2_DEV_rev248_g39d5978_masterWriting library : XviD 1.2.1 (UTC 2008-12-04)Language : EnglishTagged date : UTC 2016-08-16 17:20:36

AudioID : 2Format : AACFormat/Info : Advanced Audio CodecFormat profile : LCCodec ID : 40Duration : 1h 34mnBit rate mode : VariableBit rate : 128 KbpsMaximum bit rate : 135 KbpsChannel(s) : 2 channelsChannel positions : Front: L RSampling rate : 48.0 KHzCompression mode : LossyStream size : 86.9 MiB (20%)Title : [Dub] / [Dub]Language : RussianEncoded date : UTC 2016-08-16 17:20:34Tagged date : UTC 2016-08-16 17:20:36


Трекер:  [ 16-Авг-2016 22:00 ]

  

Скачать .torrent

Размер .torrent файла 17 KB


Размер: 425 MB
Хэш (hash) релиза: 3ef3a742f0c9a012ea23edf438e36db7524df4cc

Еще никто не оставлял запись к записи скачать торрент [MULT] Кунг-фу Панда 3 Kung Fu Panda 3 . Будь первым!

!Обратная связь