Instinto Basico BLuRayRip
The Train (2007 ) Hindi DVDRip x264 Tami...

Скачать через торрент [VIDEO] Халк: Дилогия Hulk: Dilogy бесплатно русская версия torrent активатор

Статистика раздачи
Размер:  6.15 GB   |    Зарегистрирован:  1 год 8 месяцев   |    .torrent скачан:  22 раза   |   
Раздают:  1  
   
загрузка...
 
Автор Сообщение

Galfimbul

avatar Galfimbul


Халк: Дилогия / Hulk: Dilogy

Халк / Hulk


Год выпуска: 2003
Страна: США / Universal Pictures
Жанр: фантастика, боевик
Продолжительность: 02:18:13
Перевод №1: русский Профессиональный (полное дублирование) BD CEE
Перевод №2: украинский Профессиональный (полное дублирование)
Перевод №3: русский Авторский (одноголосый, закадровый) Юрий Живов
Оригинальная дорожка: Есть
Cубтитры: Русские (forced 2 вида, R5)
Режиссер: Энг Ли / Ang Lee
В ролях: Эрик Бана, Дженнифер Коннелли, Сэм Эллиотт, Джош Лукас, Ник Нолти, Пол Керси, Кара Буоно, Тодд Тэсэн, Кевин О. Ранкин, Селия Уэстон, Майк Эрвин, Лу Ферриньо и другие .
Описание: Доктор Брюс Бэннер (ученый, работающий над изобретением новой бомбы) подвергся воздействию гамма-лучей и превратился в Халка — существо невероятной физической силы, которое в состоянии ярости становится огромным зеленым монстром.

Его преследуют военные под предводительством генерала Росса, ему приходится бежать через всю страну. В конце концов, у него возникает любовная история с генеральской дочкой Бетти…
Релиз группы
Если бы Халк действительно существовал, то он бы носил обувь 87 размера, его кожа была бы в 10 раз прочнее кевлара, а давление, создаваемое им на почву, составляло бы 14 тонн на квадратный дюйм!
На роль Халка рассматривались кандидатуры Билли Крадапа, Джонни Деппа, Дэвида Духовны, Джеффа Голдблума, Тома Круза, Джорджа Клуни, Бена Аффлека и Стива Бушеми.
Цифровые эффекты для фильма, значительная часть которого создана с применением технологии CGI, обеспечила компания Industrial Lights and Magic (ILM). Для очеловечивания Халка потребовалось создать 12 996 структурных чертежей, прорисовать 1 165 мускульных движений, задействовать 69 художников, 41 аниматора и 35 дизайнеров.
Показываемая в фильме гамма-сфера из лаборатории Брюса Баннера является реальным (и довольно сложным) оборудованием, используемым для проекта «ATLAS» Аргонской национальной лаборатории в Иллинойсе. Хотя к гамма-потокам этот прибор не имеет никакого отношения.
Режиссер Энг Ли занял свое кресло в этой картине после того, как был отвергнут в роли режиссера фильма «Терминатор 3: Восстание машин» (2003).
Поначалу композитором картины должен был стать Михаэль Дана, но затем его заменили на Дэнни Элфмана.
Лу Ферриньо, играющий начальника охраны, в первых фильмах 1977-1990 гг. играл самого Халка.
Съемки картины начались 18-го марта 2002 года в Аризоне, а в начале апреля переместились в Сан-Франциско. В августе 2002 года съемки были завершены.
Сценарий несколько раз переписывался. Первоначальным его автором был Майкл Толкин. Его труды подправил Дэвид Хейтер. Затем последовала еще одна доработка, которую выполнил Джеймс Шамус (давний партнер Энга Ли, работавший с большинством его фильмов) — это случилось после того, как Энг Ли в сердцах заявил в одном из интервью, что выбросит к чертовой матери все сценарии «Universal» и сам напишет все, что требуется. Можно добавить, что на самом старте проекта в нем каким-то образом участвовал Майкл Фрэнкс, но о нем как о сценаристе впоследствии никто не упоминал.
Для создания Халка, главного героя комикса, использовались компьютерные технологии, что создавало существенные проблемы живым актерам, которым приходилось разыгрывать сцены с пустым местом (на котором впоследствии появился искусственный персонаж). Чтобы им было легче ориентироваться, на съемочной площадке использовали картонный заменитель героя. В интервью «Vanity Fair» Дженнифер Коннелли пожаловалась, что никогда прежде не чувствовала себя так неуютно: «Я все время глядела на куски клейкой ленты на вырезанной картонке и понимала, что это ничто. Это было ужасно. Я никогда еще так не работала». Режиссер Энг Ли подтвердил, что такие затруднения в самом деле существовали, однако через неделю «картонных» тренировок Дженнифер сыграла с пустым местом так, как будто перед ней стоял живой человек.
Впервые о предстоящих съемках «Халка» заговорили еще в феврале 2000 года. Тогда еще была надежда, что фильм будут выпускать в прокат в 2001 году. В середине 2000-го один осведомленный человек из «Marvel» заявил, что фильм должен выйти через два года. Через полгода, когда продюсеры начали переговоры с Энгом Ли, речь шла уже о 2003-м.
Съемки этой картины проходили в самых различных местах страны: в национальном парке Моаб в штате Юта, в Аризоне и практически в каждом закоулке Калифорнии.
Стэн Ли, глава компании «Marvel Group» так вспоминает историю появления Халка: «Когда я был моложе, мне очень нравились фильмы «Франкенштейн» с Борисом Карлоффом в роли монстра и «Доктор Джекил и мистер Хайд». И вот однажды мне в голову пришла мысль: а что если соединить персонажей обоих фильмов и создать героя, который бы превращался из обычного человека в монстра?». Впервые «Невероятный Халк» появился на свет в мае 1962 года в серии из шести комиксов, не оставив никакого следа в душах читателей. Два года спустя он вновь появился в альманахе «Удивительные истории» в качестве эпизодического персонажа в комиксе о Giant-Man. И его популярность пошла вверх, а «Удивительные истории» были переименованы в журнал «Невероятный Халк». К 1968 году рейтинг Халка оказался выше самого популярного героя компании — Человека-Паука. Серия о «Невероятном Халке» продержалась до 1999 года, когда вышел заключительный, 474-й выпуск. В 1977 г. канал CBS запустил довольно успешный телесериал с Биллом Биксби в роли Бэннера и культуристом Лу Ферриньо в роли Халка.
В эпизодической роли охранника снялся один из создателей Халка — Стэн Ли.
Картина создана на основе комиксов Стэна Ли и Джека Кирби.
Халк придуман Стэном Ли и Джеком Кирби в 1962 году и впервые появился в комиксе The Incredible Hulk #1. Фильм не основан на определенном сюжете из комиксов.
Первое превращение Брюса в Халка происходит лишь на 42-ой минуте фильма.


Качество: BDRip / <a href="viewtopic.php?t=1433273" class="postLink">BLU-RAY 1080p</a>
Формат: MP4
Видео кодек: H.264
Аудио кодек: AAC
Видео: 1280x692 AR:1.85 2732 kbps 23.976 fps
Аудио №1: [Russian] 2ch 48 kHz 128 kbps - [Dub] Профессиональный (полное дублирование) BD CEE
Аудио №2: [Ukrainian] 2ch 48 kHz 128 kbps - [Dub] Профессиональный (полное дублирование)
Аудио №3: [Russian] 2ch 48 kHz 128 kbps - [VO] Авторский (одноголосый, закадровый) Юрий Живов
Аудио №4: [English] 2ch 48 kHz 128 kbps - Оригинал (английский)
avs [info]: 1280x692p 1:1 @ 2997/125 fps (cfr)
x264 [info]: using SAR=1/1
x264 [info]: using cpu capabilities: MMX2 SSE2Fast SSSE3 SSE4.2 LZCNT
x264 [info]: profile High, level 4.1

x264 [info]: frame I:1196 Avg QP:17.57 size: 79696
x264 [info]: frame P:46313 Avg QP:21.08 size: 27665
x264 [info]: frame B:151331 Avg QP:22.62 size: 9615
x264 [info]: consecutive B-frames: 3.6% 4.5% 7.4% 18.6% 14.6% 38.1% 5.9% 3.0% 1.6% 1.4% 0.7% 0.6%
x264 [info]: mb I I16..4: 6.1% 83.1% 10.8%
x264 [info]: mb P I16..4: 1.3% 9.1% 1.1% P16..4: 38.7% 37.2% 7.6% 0.0% 0.0% skip: 5.1%
x264 [info]: mb B I16..4: 0.1% 0.8% 0.1% B16..8: 40.7% 17.4% 1.6% direct: 4.0% skip:35.2% L0:46.3% L1:46.7% BI: 7.0%
x264 [info]: 8x8 transform intra:80.2% inter:68.4%
x264 [info]: direct mvs spatial:99.3% temporal:0.7%
x264 [info]: coded y,uvDC,uvAC intra: 80.1% 68.8% 29.0% inter: 21.9% 17.7% 2.9%
x264 [info]: i16 v,h,dc,p: 34% 15% 3% 47%
x264 [info]: i8 v,h,dc,ddl,ddr,vr,hd,vl,hu: 10% 6% 7% 10% 15% 14% 14% 12% 12%
x264 [info]: i4 v,h,dc,ddl,ddr,vr,hd,vl,hu: 28% 7% 5% 7% 12% 12% 11% 9% 9%
x264 [info]: i8c dc,h,v,p: 30% 30% 20% 20%
x264 [info]: Weighted P-Frames: Y:16.9% UV:11.0%
x264 [info]: ref P L0: 45.0% 9.0% 19.1% 7.3% 6.1% 4.4% 4.0% 2.2% 2.3% 0.5% 0.1%
x264 [info]: ref B L0: 69.7% 12.9% 7.1% 3.6% 2.7% 2.2% 1.4% 0.4%
x264 [info]: ref B L1: 93.6% 6.4%
x264 [info]: kb/s:2731.48

encoded 198840 frames, 3.32 fps, 2731.48 kb/s
GeneralComplete name : D:\Torrents\Hulk Dilogy.2003-2008.BDRip.x264.1280x\Hulk.2003.BDRip.x264.1280x.rip by Frost O.S.mp4Format : MPEG-4Format profile : Base MediaCodec ID : isomFile size : 3.14 GiBDuration : 2h 18mnOverall bit rate mode : VariableOverall bit rate : 3 257 KbpsMovie name : Hulk 2003 BDRip x264 1280x rip by Frost O SGenre : ActionContentType : Short FilmEncoded date : UTC 2016-08-12 07:03:24Tagged date : UTC 2016-08-12 07:10:45Writing application : MkvToMp4 version: 0.224 (x64)Cover : YesComment : rip by Frost O.SLongDescription : Доктор Брюс Бэннер (ученый, работающий над изобретением новой бомбы) подвергся воздействию гамма-лучей и превратился в Халка — существо невероятной физической силы, которое в состоянии ярости становится огромным зеленым монстром. / Его преследуют военные под предводительством генерала Росса, ему приходится бежать через всю страну. В конце концов, у него возникает любовная история с генеральской дочкой Бетти…HDVideo : Yes

VideoID : 1Format : AVCFormat/Info : Advanced Video CodecFormat profile : [email protected] settings, CABAC : YesFormat settings, ReFrames : 9 framesCodec ID : avc1Codec ID/Info : Advanced Video CodingDuration : 2h 18mnBit rate : 2 732 KbpsMaximum bit rate : 14.5 MbpsWidth : 1 280 pixelsHeight : 692 pixelsDisplay aspect ratio : 1.85:1Frame rate mode : ConstantFrame rate : 23.976 fpsColor space : YUVChroma subsampling : 4:2:0Bit depth : 8 bitsScan type : ProgressiveBits/(Pixel*Frame) : 0.129Stream size : 2.64 GiB (84%)Writing library : x264 core 148 r2705 3f5ed56Encoding settings : cabac=1 / ref=9 / deblock=1:-2:-2 / analyse=0x3:0x113 / me=umh / subme=11 / psy=1 / psy_rd=1.10:0.10 / mixed_ref=1 / me_range=32 / chroma_me=1 / trellis=2 / 8x8dct=1 / cqm=0 / deadzone=21,11 / fast_pskip=0 / chroma_qp_offset=-3 / threads=3 / lookahead_threads=1 / sliced_threads=0 / nr=0 / decimate=0 / interlaced=0 / bluray_compat=0 / constrained_intra=0 / bframes=11 / b_pyramid=2 / b_adapt=2 / b_bias=0 / direct=3 / weightb=1 / open_gop=0 / weightp=2 / keyint=250 / keyint_min=23 / scenecut=40 / intra_refresh=0 / rc=2pass / mbtree=0 / bitrate=2732 / ratetol=1.0 / qcomp=0.60 / qpmin=0 / qpmax=69 / qpstep=4 / cplxblur=20.0 / qblur=0.5 / ip_ratio=1.40 / pb_ratio=1.30 / aq=1:0.70Language : EnglishEncoded date : UTC 2016-08-12 07:03:24Tagged date : UTC 2016-08-12 07:07:26Color range : LimitedColor primaries : BT.709Transfer characteristics : BT.709Matrix coefficients : BT.709

Audio #1ID : 2Format : AACFormat/Info : Advanced Audio CodecFormat profile : LCCodec ID : 40Duration : 2h 18mnBit rate mode : VariableBit rate : 128 KbpsMaximum bit rate : 135 KbpsChannel(s) : 2 channelsChannel positions : Front: L RSampling rate : 48.0 KHzCompression mode : LossyStream size : 127 MiB (4%)Title : [Dub] BD CEE / [Dub] BD CEELanguage : RussianEncoded date : UTC 2016-08-12 07:06:08Tagged date : UTC 2016-08-12 07:07:26

Audio #2ID : 3Format : AACFormat/Info : Advanced Audio CodecFormat profile : LCCodec ID : 40Duration : 2h 13mnBit rate mode : VariableBit rate : 128 KbpsMaximum bit rate : 132 KbpsChannel(s) : 2 channelsChannel positions : Front: L RSampling rate : 48.0 KHzCompression mode : LossyStream size : 122 MiB (4%)Title : [Dub] / [Dub]Language : UkrainianEncoded date : UTC 2016-08-12 07:06:50Tagged date : UTC 2016-08-12 07:07:26

Audio #3ID : 4Format : AACFormat/Info : Advanced Audio CodecFormat profile : LCCodec ID : 40Duration : 2h 18mnBit rate mode : VariableBit rate : 128 KbpsMaximum bit rate : 135 KbpsChannel(s) : 2 channelsChannel positions : Front: L RSampling rate : 48.0 KHzCompression mode : LossyStream size : 127 MiB (4%)Title : [VO] Zhuvov / [VO] ZhuvovLanguage : RussianEncoded date : UTC 2016-08-12 07:07:01Tagged date : UTC 2016-08-12 07:07:26

Audio #4ID : 5Format : AACFormat/Info : Advanced Audio CodecFormat profile : LCCodec ID : 40Duration : 2h 18mnBit rate mode : VariableBit rate : 128 KbpsMaximum bit rate : 135 KbpsChannel(s) : 2 channelsChannel positions : Front: L RSampling rate : 48.0 KHzCompression mode : LossyStream size : 127 MiB (4%)Title : [Original] / [Original]Language : EnglishEncoded date : UTC 2016-08-12 07:07:16Tagged date : UTC 2016-08-12 07:07:26

Text #1ID : 6Format : Timed TextMuxing mode : sbtlCodec ID : tx3gDuration : 2h 12mnBit rate mode : VariableBit rate : 0 bpsStream size : 340 Bytes (0%)Title : Forced _1 / Forced _1Language : RussianEncoded date : UTC 2016-08-12 07:07:26Tagged date : UTC 2016-08-12 07:07:26

Text #2ID : 7Format : Timed TextMuxing mode : sbtlCodec ID : tx3gDuration : 2h 12mnBit rate mode : VariableBit rate : 3 bpsStream size : 2.69 KiB (0%)Title : Forced _1 / Forced _1Language : RussianEncoded date : UTC 2016-08-12 07:07:26Tagged date : UTC 2016-08-12 07:07:26

Text #3ID : 8Format : Timed TextMuxing mode : sbtlCodec ID : tx3gDuration : 2h 12mnBit rate mode : VariableBit rate : 64 bpsStream size : 61.7 KiB (0%)Title : R5 / R5Language : RussianEncoded date : UTC 2016-08-12 07:07:26Tagged date : UTC 2016-08-12 07:07:26
Невероятный Халк / The Incredible Hulk


Год выпуска: 2008
Страна: США / Universal Pictures
Жанр: фантастика, боевик
Продолжительность: 01:52:14
Перевод №1: русский Профессиональный (полное дублирование) BD CEE
Перевод №2: украинский Профессиональный (полное дублирование)
Перевод №3: русский Профессиональный (многоголосый, закадровы) Kravec
Перевод №4: русский Профессиональный (двухголосый, закадровы) Супербит
Перевод №5: русский Авторский (одноголосый, закадровый) А.Гаврилов
Перевод №6: русский Авторский (одноголосый, закадровый) В.Королев
Оригинальная дорожка: Есть
Cубтитры: Русские (forced, full)
Режиссер: Луи Летерье / Louis Leterrier
В ролях: Эдвард Нортон, Лив Тайлер, Тим Рот, Уильям Хёрт, Тим Блейк Нельсон, Тай Бурелл, Кристина Кэбот, Питер Менса, Лу Ферриньо, Пол Соулз, Дебора Наскименто, Грег Брайк и другие .
Описание: История доктора Брюса Баннера, который ищет лекарство от своего необычного «заболевания», превращающего его во время эмоционального стресса в гигантского зеленого монстра Халка. Находясь в бегах от армии, стремящейся его захватить, Брюс почти находит лекарство, но все старания идут прахом, когда у Халка вдруг появляется новый, невероятно сильный противник.
Релиз группы
В оригинальных комиксах монстр носит фиолетовые штаны, вернее то что от них остается. Что интересно, когда Элизабет предлагает Брюсу надеть штаны фиолетового цвета, он отказывается, этот забавный момент объясняется тем, что в США одежду фиолетового цвета носят в основном представители сексуальных меньшинств.
Все вооружение в фильме имеет бренд «Stark Industries», то есть компании Тони Старка, Железного человека — другого персонажа комиксов Marvel.
Получив полный контроль над экранизациями своих комиксов, студия Marvel смогла сделать то, о чем ее давно просили фанаты, — сплести вместе фильмы о супергероях, знакомых друг с другом в исходных комиксах. Так, в «Невероятном Халке» есть небольшая роль у Роберта Дауни мл. в образе Железного человека.
В первом фильме — «Халк» (2003) — заглавный герой мог увеличиваться в размере и достигать невероятной величины. В картине Летерье от этого отказались. В полном соответствии с комиксом, Халк во второй картине примерно 2 метра 70 см в высоту. Также он не похож на Эдварда Нортона, но на его лице есть шрам и родинка там же, где и у актера.
Студия утверждает, что это не сиквел «Халка» (2003), а новая киноадаптация комикса от Marvel.
Эдвард Нортон, известный тем, что часто переписывает сценарии картин, в которых снимается, и в этот раз принял участие в разработке сценария, отредактировав его под себя, в результате чего в картине появились новые персонажи.
Стэн Ли исполнил небольшую роль в фильме. Он сыграл человека, который выпил газировку с инфицированной кровью.
В начале фильма Брюс Баннер (Эдвард Нортон) смотрит бразильское ТВ. В одном из сериалов — «Уход за отцом Эдди»(1969) — мужчине дают пощечину. Это актер Билл Биксби, игравший Дэвида Баннера в сериале «Невероятный Халк» (1978).
По данному фильму была сделана одноименная игра.
Основные съемки «Невероятного Халка» начались в июле 2007 года и продолжались 88 дней. Начали в Торонто, а закончили в ноябре в Рио-де-Жанейро.
Халк впервые появился в комиксе «The Incredible Hulk» #1 (май 1962 г.).
Бразильский город, в котором скрывается Бэннер, называется Порто-Верде, что в переводе с испанского значит «зелёный порт», что является намёком на цвет кожи Халка.
На роль Эмиля Блонски рассматривался Рэй Стивенсон.
Когда Брюс Беннер несет пиццу по заказу, он дает мини-пиццу охраннику. Это актер Лу Ферриньо ранее игравший Халка в сериале «Невероятный Халк» (1978-1982).
Сцена финальной битвы Халка и Мерзости происходит на развалинах суда. Это была идея Нортона — он хотел, чтобы колонны в греческом стиле отсылали к древнегреческой мифологии, представляя этот бой как сражение полубогов.

Когда Брюс едет на велосипеде, чтобы доставить пиццу и проникнуть в лабораторию два раза звучит «велосипедный звонок», но на велосипеде этот звонок отсутствует.
Когда Брюс идет по городку Чапас в Мексике в изодранных штанах, они у него достают до стоп. В следующей сцене он сидит обессиленный на рынке, штаны у него на уровне колен. А в следующей, где он хочет купить новую одежду, они вновь достают до стоп.

Качество: BDRip / <a href="viewtopic.php?t=2213040" class="postLink">BLU-RAY CEE 1080p</a>
Формат: MP4
Видео кодек: H.264
Аудио кодек: AAC
Видео: 1280x544 AR:2.35 2912 kbps 23.976 fps
Аудио №1: [Russian] 2ch 48 kHz 128 kbps - [Dub] Профессиональный (полное дублирование) BD CEE
Аудио №2: [Ukrainian] 2ch 48 kHz 128 kbps - [Dub] Профессиональный (полное дублирование)
Аудио №3: [Russian] 2ch 48 kHz 128 kbps - [MVO] Профессиональный (многоголосый, закадровы) Kravec
Аудио №4: [Russian] 2ch 48 kHz 128 kbps - [DVO] Профессиональный (двухголосый, закадровы) Супербит
Аудио №5: [Russian] 2ch 48 kHz 128 kbps - [VO] Авторский (одноголосый, закадровый) А.Гаврилов
Аудио №6: [Russian] 2ch 48 kHz 128 kbps - [VO] Авторский (одноголосый, закадровый) В.Королев
Аудио №7: [English] 2ch 48 kHz 128 kbps - Оригинал (английский)
avs [info]: 1280x544p 1:1 @ 2997/125 fps (cfr)
x264 [info]: using SAR=1/1
x264 [info]: using cpu capabilities: MMX2 SSE2Fast SSSE3 SSE4.2 LZCNT
x264 [info]: profile High, level 4.1

x264 [info]: frame I:1420 Avg QP:17.23 size: 84896
x264 [info]: frame P:44111 Avg QP:21.20 size: 26698
x264 [info]: frame B:115924 Avg QP:23.04 size: 9917
x264 [info]: consecutive B-frames: 5.1% 8.2% 11.5% 28.3% 15.8% 23.4% 3.9% 2.5% 1.3%
x264 [info]: mb I I16..4: 8.7% 77.1% 14.2%
x264 [info]: mb P I16..4: 1.5% 10.3% 1.3% P16..4: 35.2% 36.8% 8.7% 0.0% 0.0% skip: 6.1%
x264 [info]: mb B I16..4: 0.1% 1.1% 0.1% B16..8: 39.1% 18.0% 2.3% direct: 5.1% skip:34.1% L0:45.1% L1:45.8% BI: 9.1%
x264 [info]: 8x8 transform intra:78.8% inter:66.6%
x264 [info]: direct mvs spatial:97.2% temporal:2.8%
x264 [info]: coded y,uvDC,uvAC intra: 81.7% 83.3% 59.4% inter: 24.3% 25.1% 9.8%
x264 [info]: i16 v,h,dc,p: 29% 18% 5% 48%
x264 [info]: i8 v,h,dc,ddl,ddr,vr,hd,vl,hu: 7% 6% 6% 10% 16% 14% 15% 12% 14%
x264 [info]: i4 v,h,dc,ddl,ddr,vr,hd,vl,hu: 9% 9% 6% 9% 15% 14% 15% 11% 14%
x264 [info]: i8c dc,h,v,p: 40% 23% 17% 20%
x264 [info]: Weighted P-Frames: Y:15.6% UV:11.4%
x264 [info]: ref P L0: 48.8% 9.6% 16.6% 6.2% 4.9% 4.0% 3.4% 1.7% 1.4% 1.2% 1.8% 0.3% 0.1%
x264 [info]: ref B L0: 75.6% 10.2% 4.9% 2.4% 2.5% 1.7% 1.5% 0.6% 0.4% 0.2%
x264 [info]: ref B L1: 95.1% 4.9%
x264 [info]: kb/s:2907.95

encoded 161455 frames, 3.54 fps, 2907.95 kb/s
GeneralComplete name : D:\Torrents\Hulk Dilogy.2003-2008.BDRip.x264.1280x\The Incredible Hulk.2008.BDRip.x264.1280x.rip by Frost O.S.mp4Format : MPEG-4Format profile : Base MediaCodec ID : isomFile size : 3.01 GiBDuration : 1h 52mnOverall bit rate mode : VariableOverall bit rate : 3 829 KbpsMovie name : The Incredible Hulk 2008 BDRip x264 1280x rip by Frost O SGenre : ActionContentType : Short FilmEncoded date : UTC 2016-08-14 18:41:48Tagged date : UTC 2016-08-14 18:48:53Writing application : MkvToMp4 version: 0.224 (x64)Cover : YesComment : rip by Frost O.SLongDescription : История доктора Брюса Баннера, который ищет лекарство от своего необычного «заболевания», превращающего его во время эмоционального стресса в гигантского зеленого монстра Халка. Находясь в бегах от армии, стремящейся его захватить, Брюс почти находит лекарство, но все старания идут прахом, когда у Халка вдруг появляется новый, невероятно сильный противник.HDVideo : Yes

VideoID : 1Format : AVCFormat/Info : Advanced Video CodecFormat profile : [email protected] settings, CABAC : YesFormat settings, ReFrames : 11 framesCodec ID : avc1Codec ID/Info : Advanced Video CodingDuration : 1h 52mnBit rate : 2 912 KbpsMaximum bit rate : 9 313 KbpsWidth : 1 280 pixelsHeight : 544 pixelsDisplay aspect ratio : 2.35:1Frame rate mode : ConstantFrame rate : 23.976 fpsColor space : YUVChroma subsampling : 4:2:0Bit depth : 8 bitsScan type : ProgressiveBits/(Pixel*Frame) : 0.174Stream size : 2.28 GiB (76%)Writing library : x264 core 148 r2705 3f5ed56Encoding settings : cabac=1 / ref=11 / deblock=1:-2:-2 / analyse=0x3:0x113 / me=umh / subme=11 / psy=1 / psy_rd=1.20:0.10 / mixed_ref=1 / me_range=32 / chroma_me=1 / trellis=2 / 8x8dct=1 / cqm=0 / deadzone=21,11 / fast_pskip=0 / chroma_qp_offset=-3 / threads=3 / lookahead_threads=1 / sliced_threads=0 / nr=0 / decimate=0 / interlaced=0 / bluray_compat=0 / constrained_intra=0 / bframes=8 / b_pyramid=2 / b_adapt=2 / b_bias=0 / direct=3 / weightb=1 / open_gop=0 / weightp=2 / keyint=250 / keyint_min=23 / scenecut=40 / intra_refresh=0 / rc=2pass / mbtree=0 / bitrate=2912 / ratetol=1.0 / qcomp=0.60 / qpmin=0 / qpmax=69 / qpstep=4 / cplxblur=20.0 / qblur=0.5 / ip_ratio=1.40 / pb_ratio=1.30 / aq=1:0.80Language : EnglishEncoded date : UTC 2016-08-14 18:41:48Tagged date : UTC 2016-08-14 18:43:14Color range : LimitedColor primaries : BT.709Transfer characteristics : BT.709Matrix coefficients : BT.709

Audio #1ID : 2Format : AACFormat/Info : Advanced Audio CodecFormat profile : LCCodec ID : 40Duration : 1h 52mnBit rate mode : VariableBit rate : 128 KbpsMaximum bit rate : 134 KbpsChannel(s) : 2 channelsChannel positions : Front: L RSampling rate : 48.0 KHzCompression mode : LossyStream size : 103 MiB (3%)Title : [Dub] BD CEE / [Dub] BD CEELanguage : RussianEncoded date : UTC 2016-08-14 18:42:16Tagged date : UTC 2016-08-14 18:43:14

Audio #2ID : 3Format : AACFormat/Info : Advanced Audio CodecFormat profile : LCCodec ID : 40Duration : 1h 52mnBit rate mode : VariableBit rate : 128 KbpsMaximum bit rate : 134 KbpsChannel(s) : 2 channelsChannel positions : Front: L RSampling rate : 48.0 KHzCompression mode : LossyStream size : 103 MiB (3%)Title : [Dub] / [Dub]Language : UkrainianEncoded date : UTC 2016-08-14 18:42:28Tagged date : UTC 2016-08-14 18:43:14

Audio #3ID : 4Format : AACFormat/Info : Advanced Audio CodecFormat profile : LCCodec ID : 40Duration : 1h 52mnBit rate mode : VariableBit rate : 128 KbpsMaximum bit rate : 133 KbpsChannel(s) : 2 channelsChannel positions : Front: L RSampling rate : 48.0 KHzCompression mode : LossyStream size : 103 MiB (3%)Title : [MVO] Kravec / [MVO] KravecLanguage : RussianEncoded date : UTC 2016-08-14 18:42:34Tagged date : UTC 2016-08-14 18:43:14

Audio #4ID : 5Format : AACFormat/Info : Advanced Audio CodecFormat profile : LCCodec ID : 40Duration : 1h 52mnBit rate mode : VariableBit rate : 128 KbpsMaximum bit rate : 135 KbpsChannel(s) : 2 channelsChannel positions : Front: L RSampling rate : 48.0 KHzCompression mode : LossyStream size : 103 MiB (3%)Title : [DVO] Superbit / [DVO] SuperbitLanguage : RussianEncoded date : UTC 2016-08-14 18:42:40Tagged date : UTC 2016-08-14 18:43:14

Audio #5ID : 6Format : AACFormat/Info : Advanced Audio CodecFormat profile : LCCodec ID : 40Duration : 1h 52mnBit rate mode : VariableBit rate : 128 KbpsMaximum bit rate : 135 KbpsChannel(s) : 2 channelsChannel positions : Front: L RSampling rate : 48.0 KHzCompression mode : LossyStream size : 103 MiB (3%)Title : [VO] Gavrilov / [VO] GavrilovLanguage : RussianEncoded date : UTC 2016-08-14 18:42:47Tagged date : UTC 2016-08-14 18:43:14

Audio #6ID : 7Format : AACFormat/Info : Advanced Audio CodecFormat profile : LCCodec ID : 40Duration : 1h 52mnBit rate mode : VariableBit rate : 128 KbpsMaximum bit rate : 135 KbpsChannel(s) : 2 channelsChannel positions : Front: L RSampling rate : 48.0 KHzCompression mode : LossyStream size : 103 MiB (3%)Title : [VO] Korolev / [VO] KorolevLanguage : RussianEncoded date : UTC 2016-08-14 18:42:58Tagged date : UTC 2016-08-14 18:43:14

Audio #7ID : 8Format : AACFormat/Info : Advanced Audio CodecFormat profile : LCCodec ID : 40Duration : 1h 52mnBit rate mode : VariableBit rate : 128 KbpsMaximum bit rate : 133 KbpsChannel(s) : 2 channelsChannel positions : Front: L RSampling rate : 48.0 KHzCompression mode : LossyStream size : 103 MiB (3%)Title : [Original] / [Original]Language : EnglishEncoded date : UTC 2016-08-14 18:43:05Tagged date : UTC 2016-08-14 18:43:14

Text #1ID : 9Format : Timed TextMuxing mode : sbtlCodec ID : tx3gDuration : 1h 52mnBit rate mode : VariableBit rate : 8 bpsStream size : 6.32 KiB (0%)Title : Forced / ForcedLanguage : RussianEncoded date : UTC 2016-08-14 18:43:14Tagged date : UTC 2016-08-14 18:43:14

Text #2ID : 10Format : Timed TextMuxing mode : sbtlCodec ID : tx3gDuration : 1h 45mnBit rate mode : VariableBit rate : 64 bpsStream size : 49.4 KiB (0%)Title : Full / FullLanguage : RussianEncoded date : UTC 2016-08-14 18:43:14Tagged date : UTC 2016-08-14 18:43:14


Трекер:  [ 15-Авг-2016 06:30 ]

  

Скачать .torrent

Размер .torrent файла 31 KB


Размер: 6.15 GB
Хэш (hash) релиза: 19035e303d12be0f264af75586a5f7956479d8f2

Еще никто не оставлял запись к записи скачать торрент [VIDEO] Халк: Дилогия Hulk: Dilogy . Будь первым!

!Обратная связь