Alle unter einem Dach | Red Dwarf | Ibu Hamil Tewas Ditembak Begal di Tangerang

Скачать через торрент [VIDEO] Затерянные в Гонконге Приключения в Гонконге бесплатно русская версия torrent активатор

Статистика раздачи
Размер:  924 MB   |    Зарегистрирован:  1 год 11 месяцев   |    .torrent скачан:  19 раз   |   
Раздают:  1  
   
загрузка...
 
Автор Сообщение

Galfimbul

avatar Galfimbul


Затерянные в Гонконге / Приключения в Гонконге / Lost in Hong Kong / Gang jiong

Год выпуска: 2015
Страна: Китай, Гонконг
Жанр: боевик, приключения, комедия
Продолжительность: 01:53:46
Перевод: Авторский (Одноголосый, закадровый) VO А. Дольский
Cубтитры: нет
Режиссеры: Сюй Чжэн / Zheng Xu
В ролях: Чжэн Сюй, Бао Бэйэр, Викки Чжао, Вэй Чжао, Цзюань Ду, Сэм Ли и другие .
Описание: Когда Сюй Лай (Сюй Чжэн) учился в колледже, он мечтал стать художником и встречался с амбициозной Ян И (Ду Цзюань). Но судьба распорядилась так, что им ни разу так и не удалось поцеловаться, затем Ян И уехала, а Сюй Лай связал свою судьбу с тихоней (Викки Чжао), которая устроила его на ненавистную работу к своему отцу дизайнером бюстгальтеров. С тех пор прошло много лет, и однажды Сюй Лай узнает, что Ян И стала известной художницей и устраивает в Гонконге свою выставку. Он немедленно едет туда, чтобы завершить начатое много лет назад, но ему на хвост садится надоедливый брат жены (Бао Бэйэр), твердо вознамерившийся снять про зятя документальное кино.

На КиноПоиске еще нету рейтинга
Качество: HDRip / <a href="viewtopic.php?t=5253270" class="postLink">рип с BDRip 720p</a>
Формат: MP4
Видео кодек: H.264
Аудио кодек: AAC
Видео: 960x358 AR:2.68 1000 kbps 24 fps
Аудио: [Русский] 2ch 48 kHz 128 kbps - [VO] А. Дольский
avs [info]: 960x358p 1:1 @ 24/1 fps (cfr)
x264 [info]: using SAR=1/1
x264 [info]: using cpu capabilities: MMX2 SSE2Fast SSSE3 SSE4.2 LZCNT
x264 [info]: profile High, level 4.1

x264 [info]: frame I:1953 Avg QP:18.82 size: 46506
x264 [info]: frame P:39209 Avg QP:23.30 size: 11296
x264 [info]: frame B:122666 Avg QP:26.90 size: 2601
x264 [info]: consecutive B-frames: 2.9% 4.9% 10.2% 27.6% 15.8% 33.0% 4.4% 1.2%
x264 [info]: mb I I16..4: 9.9% 62.3% 27.7%
x264 [info]: mb P I16..4: 1.2% 7.8% 1.8% P16..4: 32.7% 31.6% 9.5% 0.0% 0.0% skip:15.3%
x264 [info]: mb B I16..4: 0.1% 1.0% 0.2% B16..8: 30.3% 10.7% 1.8% direct: 1.9% skip:53.9% L0:41.1% L1:47.5% BI:11.5%
x264 [info]: 8x8 transform intra:70.3% inter:63.8%
x264 [info]: direct mvs spatial:93.6% temporal:6.4%
x264 [info]: coded y,uvDC,uvAC intra: 75.6% 76.6% 49.6% inter: 12.0% 10.7% 5.0%
x264 [info]: i16 v,h,dc,p: 22% 19% 4% 55%
x264 [info]: i8 v,h,dc,ddl,ddr,vr,hd,vl,hu: 15% 8% 5% 9% 13% 13% 13% 11% 12%
x264 [info]: i4 v,h,dc,ddl,ddr,vr,hd,vl,hu: 19% 10% 6% 8% 12% 12% 12% 9% 11%
x264 [info]: i8c dc,h,v,p: 32% 26% 23% 18%
x264 [info]: Weighted P-Frames: Y:2.7% UV:1.4%
x264 [info]: ref P L0: 56.1% 14.0% 13.4% 5.3% 3.5% 3.1% 2.6% 1.9% 0.1% 0.0%
x264 [info]: ref B L0: 85.1% 6.8% 3.5% 1.6% 1.6% 0.9% 0.5%
x264 [info]: ref B L1: 96.8% 3.2%
x264 [info]: kb/s:999.44

encoded 163828 frames, 9.89 fps, 999.45 kb/s

GeneralComplete name : D:\Torrents\Lost in Hong Kong.2015.HDRip.x264.960x.rip by Frost O.S.mp4Format : MPEG-4Format profile : Base MediaCodec ID : isomFile size : 924 MiBDuration : 1h 53mnOverall bit rate mode : VariableOverall bit rate : 1 135 KbpsMovie name : Lost in Hong Kong 2015 HDRip x264 960x rip by Frost O SGenre : ComedyContentType : Short FilmEncoded date : UTC 2016-08-13 13:01:11Tagged date : UTC 2016-08-13 13:01:59Writing application : MkvToMp4 version: 0.224 (x64)Cover : YesComment : rip by Frost O.SLongDescription : Когда Сюй Лай (Сюй Чжэн) учился в колледже, он мечтал стать художником и встречался с амбициозной Ян И (Ду Цзюань). Но судьба распорядилась так, что им ни разу так и не удалось поцеловаться, затем Ян И уехала, а Сюй Лай связал свою судьбу с тихоней (Викки Чжао), которая устроила его на ненавистную работу к своему отцу дизайнером бюстгальтеров. С тех пор прошло много лет, и однажды Сюй Лай узнает, что Ян И стала известной художницей и устраивает в Гонконге свою выставку. Он немедленно едет туда, чтобы завершить начатое много лет назад, но ему на хвост садится надоедливый брат жены (Бао Бэйэр), твердо вознамерившийся снять про зятя документальное кино.

VideoID : 1Format : AVCFormat/Info : Advanced Video CodecFormat profile : [email protected] settings, CABAC : YesFormat settings, ReFrames : 8 framesCodec ID : avc1Codec ID/Info : Advanced Video CodingDuration : 1h 53mnBit rate : 1 000 KbpsMaximum bit rate : 7 429 KbpsWidth : 960 pixelsHeight : 358 pixelsDisplay aspect ratio : 2.682Frame rate mode : ConstantFrame rate : 24.000 fpsColor space : YUVChroma subsampling : 4:2:0Bit depth : 8 bitsScan type : ProgressiveBits/(Pixel*Frame) : 0.121Stream size : 813 MiB (88%)Writing library : x264 core 148 r2705 3f5ed56Encoding settings : cabac=1 / ref=8 / deblock=1:-2:-2 / analyse=0x3:0x113 / me=umh / subme=11 / psy=1 / psy_rd=0.80:0.00 / mixed_ref=1 / me_range=32 / chroma_me=1 / trellis=2 / 8x8dct=1 / cqm=0 / deadzone=21,11 / fast_pskip=0 / chroma_qp_offset=-2 / threads=3 / lookahead_threads=1 / sliced_threads=0 / nr=0 / decimate=0 / interlaced=0 / bluray_compat=0 / constrained_intra=0 / bframes=7 / b_pyramid=2 / b_adapt=2 / b_bias=0 / direct=3 / weightb=1 / open_gop=0 / weightp=2 / keyint=250 / keyint_min=24 / scenecut=40 / intra_refresh=0 / rc_lookahead=40 / rc=2pass / mbtree=1 / bitrate=1000 / ratetol=1.0 / qcomp=0.60 / qpmin=0 / qpmax=69 / qpstep=4 / cplxblur=20.0 / qblur=0.5 / ip_ratio=1.40 / aq=1:0.90Language : EnglishEncoded date : UTC 2016-08-13 13:01:11Tagged date : UTC 2016-08-13 13:01:30Color range : LimitedColor primaries : BT.709Transfer characteristics : BT.709Matrix coefficients : BT.709

AudioID : 2Format : AACFormat/Info : Advanced Audio CodecFormat profile : LCCodec ID : 40Duration : 1h 53mnBit rate mode : VariableBit rate : 128 KbpsMaximum bit rate : 135 KbpsChannel(s) : 2 channelsChannel positions : Front: L RSampling rate : 48.0 KHzCompression mode : LossyStream size : 104 MiB (11%)Title : [VO] Dolskiy / [VO] DolskiyLanguage : RussianEncoded date : UTC 2016-08-13 13:01:27Tagged date : UTC 2016-08-13 13:01:30


Трекер:  [ 13-Авг-2016 15:30 ]

  

Скачать .torrent

Размер .torrent файла 18 KB


Размер: 924 MB
Хэш (hash) релиза: 48b3266339a6238dd220ccf6df0a4c16116354b1

Еще никто не оставлял запись к записи скачать торрент [VIDEO] Затерянные в Гонконге Приключения в Гонконге . Будь первым!

!Обратная связь