Эйфория / Euphoria (2017) WEB-DLRip-AVC | MVO 17 minutes | Battle Trip - 배틀트립Battle Trip | OpenLoad

Скачать через торрент [VIDEO] Затерянные в Гонконге Приключения в Гонконге бесплатно русская версия torrent активатор

Статистика раздачи
Размер:  493 MB   |    Зарегистрирован:  1 год 11 месяцев   |    .torrent скачан:  13 раз   |   
Раздают:  1  
   
загрузка...
 
Автор Сообщение

Galfimbul

avatar Galfimbul


Затерянные в Гонконге / Приключения в Гонконге / Lost in Hong Kong / Gang jiong

Год выпуска: 2015
Страна: Китай, Гонконг
Жанр: боевик, приключения, комедия
Продолжительность: 01:53:46
Перевод: Авторский (Одноголосый, закадровый) VO А. Дольский
Cубтитры: нет
Режиссеры: Сюй Чжэн / Zheng Xu
В ролях: Чжэн Сюй, Бао Бэйэр, Викки Чжао, Вэй Чжао, Цзюань Ду, Сэм Ли и другие .
Описание: Когда Сюй Лай (Сюй Чжэн) учился в колледже, он мечтал стать художником и встречался с амбициозной Ян И (Ду Цзюань). Но судьба распорядилась так, что им ни разу так и не удалось поцеловаться, затем Ян И уехала, а Сюй Лай связал свою судьбу с тихоней (Викки Чжао), которая устроила его на ненавистную работу к своему отцу дизайнером бюстгальтеров. С тех пор прошло много лет, и однажды Сюй Лай узнает, что Ян И стала известной художницей и устраивает в Гонконге свою выставку. Он немедленно едет туда, чтобы завершить начатое много лет назад, но ему на хвост садится надоедливый брат жены (Бао Бэйэр), твердо вознамерившийся снять про зятя документальное кино.

На КиноПоиске еще нету рейтинга
Качество: HDRip / <a href="viewtopic.php?t=5253270" class="postLink">рип с BDRip 720p</a>
Формат: MP4
Видео кодек: XviD
Аудио кодек: AAC
Видео: 480x176 AR:2.73 470 kbps 24 fps
Аудио: [Русский] 2ch 48 kHz 128 kbps - [VO] А. Дольский
GeneralComplete name : D:\Torrents\Lost in Hong Kong.2015.HDRip.XviD.480x.rip by Frost O.S.mp4Format : MPEG-4Format profile : Base MediaCodec ID : isomFile size : 493 MiBDuration : 1h 53mnOverall bit rate mode : VariableOverall bit rate : 605 KbpsMovie name : Lost in Hong Kong 2015 HDRip XviD 480x rip by Frost O SGenre : ComedyContentType : Short FilmEncoded date : UTC 2016-08-13 13:09:36Tagged date : UTC 2016-08-13 13:10:03Writing application : MkvToMp4 version: 0.224 (x64)Cover : YesComment : rip by Frost O.SLongDescription : Когда Сюй Лай (Сюй Чжэн) учился в колледже, он мечтал стать художником и встречался с амбициозной Ян И (Ду Цзюань). Но судьба распорядилась так, что им ни разу так и не удалось поцеловаться, затем Ян И уехала, а Сюй Лай связал свою судьбу с тихоней (Викки Чжао), которая устроила его на ненавистную работу к своему отцу дизайнером бюстгальтеров. С тех пор прошло много лет, и однажды Сюй Лай узнает, что Ян И стала известной художницей и устраивает в Гонконге свою выставку. Он немедленно едет туда, чтобы завершить начатое много лет назад, но ему на хвост садится надоедливый брат жены (Бао Бэйэр), твердо вознамерившийся снять про зятя документальное кино.

VideoID : 1Format : MPEG-4 VisualFormat profile : Advanced [email protected] settings, BVOP : YesFormat settings, QPel : NoFormat settings, GMC : No warppointsFormat settings, Matrix : CustomCodec ID : 20Duration : 1h 53mnBit rate mode : VariableBit rate : 470 KbpsMaximum bit rate : 3 117 KbpsWidth : 480 pixelsHeight : 176 pixelsDisplay aspect ratio : 2.727Frame rate mode : VariableFrame rate : 24.000 fpsMinimum frame rate : 12.000 fpsMaximum frame rate : 24.000 fpsColor space : YUVChroma subsampling : 4:2:0Bit depth : 8 bitsScan type : ProgressiveCompression mode : LossyBits/(Pixel*Frame) : 0.232Stream size : 382 MiB (78%)Title : avi_GPAC0.5.2_DEV_rev248_g39d5978_masterWriting library : XviD 1.2.1 (UTC 2008-12-04)Language : EnglishTagged date : UTC 2016-08-13 13:09:43

AudioID : 2Format : AACFormat/Info : Advanced Audio CodecFormat profile : LCCodec ID : 40Duration : 1h 53mnBit rate mode : VariableBit rate : 128 KbpsMaximum bit rate : 135 KbpsChannel(s) : 2 channelsChannel positions : Front: L RSampling rate : 48.0 KHzCompression mode : LossyStream size : 104 MiB (21%)Title : [VO] Dolskiy / [VO] DolskiyLanguage : RussianEncoded date : UTC 2016-08-13 13:09:40Tagged date : UTC 2016-08-13 13:09:43


Трекер:  [ 13-Авг-2016 15:30 ]

  

Скачать .torrent

Размер .torrent файла 19 KB


Размер: 493 MB
Хэш (hash) релиза: 1ae4a78ffc6024bc2007ad777d98884f0b3cd4c9

Еще никто не оставлял запись к записи скачать торрент [VIDEO] Затерянные в Гонконге Приключения в Гонконге . Будь первым!

!Обратная связь