Download Lagu Kangen Band Yolanda Mp3 | leather sofa covers online india | 個人化

Скачать через торрент [SERIAL] Следствие по телу Body of Proof бесплатно русская версия torrent активатор

Статистика раздачи
Размер:  3.26 GB   |    Зарегистрирован:  1 год 11 месяцев   |    .torrent скачан:  39 раз   |   
Раздают:  1  
   
загрузка...
 
Автор Сообщение

Galfimbul

avatar Galfimbul


Следствие по телу / Body of Proof1 сезон
Год выпуска: 2011-2013
Страна: США
Жанр: драма, криминал, детектив
Продолжительность: ~ 00:43:00
Перевод: Профессиональный (дублированный) Первый канал
Режиссер: Кристофер Мёрфи / Christopher Murphey
В ролях: Dana Delany, Nicholas Bishop, Windell Middlebrooks, Suzanne Gillies, Geoffrey Arend, John Carroll Lynch, Jeri Ryan и др.
Описание: «Следствие по телу» рассказывает уникальную историю судебного медэксперта доктора Меган Хант. Гениальный нейрохирург в прошлом, волей обстоятельств она становится ведущим криминалистом. Доктор Хант должна проводить все время в лаборатории. Но вместо этого врач активно включается в паутину расследований и становится настоящим сыщиком от медицины. В то время как полиция пытается получить информацию от живых, доктор Хант ищет разгадки в телах мертвых.
Доп. информация: В дальнейшем планирую добавить в эту раздачу 2 и 3 сезоны.
Качество: WEB-DLRip
Формат: MP4
Видео: MPEG-4 Visual, 640x360 (16:9), 1080 Kbps, 23,976 fps
Аудио: Русский, AAC, 2 ch, 128 Kbps, 48 KHz
ОбщееПолное имя : D:\Раздачи\Body.of.Proof.WEB-DLRip.640x\Season 1\Body.of.Proof.s01e01.mp4Формат : MPEG-4Профиль формата : Base Media / Version 2Идентификатор кодека : mp42 (isom/mp42/3gp5)Размер файла : 372 МбайтПродолжительность : 43 м.Режим общего битрейта : ПеременныйОбщий поток : 1197 Кбит/секДата кодирования : UTC 2016-08-10 04:11:04Дата пометки : UTC 2016-08-10 04:11:04

ВидеоИдентификатор : 201Формат : MPEG-4 VisualПрофиль формата : [email protected]Параметр BVOP формата : НетПараметр QPel формата : НетПараметр GMC формата : Без точки переходаПараметр матрицы формата : Default (H.263)Идентификатор кодека : 20Продолжительность : 43 м.Вид битрейта : ПеременныйБитрейт : 1069 Кбит/секМаксимальный битрейт : 4635 Кбит/секШирина : 640 пикселейВысота : 360 пикселейСоотношение сторон : 16:9Режим частоты кадров : ПостоянныйЧастота кадров : 23,976 (24000/1001) кадра/секЦветовое пространство : YUVСубдискретизация насыщенности : 4:2:0Битовая глубина : 8 битТип развёртки : ПрогрессивнаяМетод сжатия : С потерямиБит/(Пиксели*Кадры) : 0.194Размер потока : 332 Мбайт (89%)Библиотека кодирования : Lavc52.30.2Дата кодирования : UTC 2016-08-10 04:11:04Дата пометки : UTC 2016-08-10 04:11:15

АудиоИдентификатор : 101Формат : AACФормат/Информация : Advanced Audio CodecПрофиль формата : LCИдентификатор кодека : 40Продолжительность : 43 м.Вид битрейта : ПеременныйБитрейт : 125 Кбит/секМаксимальный битрейт : 258 Кбит/секКаналы : 2 каналаРасположение каналов : Front: L RЧастота : 48,0 КГцЧастота кадров : 46,875 кадров/сек (1024 spf)Метод сжатия : С потерямиРазмер потока : 38,9 Мбайт (10%)Дата кодирования : UTC 2016-08-10 04:11:11Дата пометки : UTC 2016-08-10 04:11:15

Прочее #1Идентификатор : 2Тип : Object descriptionФормат : SystemИдентификатор кодека : 1Продолжительность : 1 с. 0 мс.Дата кодирования : UTC 2016-08-10 04:11:15Дата пометки : UTC 2016-08-10 04:11:15

Прочее #2Идентификатор : 1Тип : Scene descriptionФормат : System CoreИдентификатор кодека : 2Продолжительность : 1 с. 0 мс.Дата кодирования : UTC 2016-08-10 04:11:15Дата пометки : UTC 2016-08-10 04:11:15


Трекер:  [ 13-Авг-2016 12:30 ]

  

Скачать .torrent

Размер .torrent файла 17 KB


Размер: 3.26 GB
Хэш (hash) релиза: 1c7fd9732d880801728c7243d1f7ae9835db4b42

Еще никто не оставлял запись к записи скачать торрент [SERIAL] Следствие по телу Body of Proof . Будь первым!

!Обратная связь