William Fichtner | Eric Mabius | QSerie.com - Peliculas 2015 Online Gratis!

Скачать через торрент [VIDEO] Парикмахерша и Чудовище The Beautician and the Beast бесплатно русская версия torrent активатор

Статистика раздачи
Размер:  1.67 GB   |    Зарегистрирован:  1 год 11 месяцев   |    .torrent скачан:  24 раза   |   
Раздают:  1  
   
загрузка...
 
Автор Сообщение

Galfimbul

avatar Galfimbul


Парикмахерша и Чудовище / The Beautician and the Beast
Год выпуска: 1997
Страна: США
Студия: Paramount Pictures, High School Sweethearts, Koch Company
Жанр: комедия, мелодрама
Продолжительность: 01:47:06
Перевод 1: Профессиональный (многоголосый закадровый) СТС
Перевод 2: Профессиональный (многоголосый закадровый) Премьер Видео Фильм
Оригинальная аудиодорожка: английский

Режиссер: Кен Куопис / Ken Kwapis
В ролях: Фрэн Дрешер , Тимоти Далтон, Иэн МакНис, Патрик Мэлахайд, Лиза Якуб, Майкл Лернер, Филлис Ньюман, Хезер ДеЛоач, Адам Лаворна, Кайл Уилкерсон, Тайлер Уилкерсон, Тимоти Даулинг, Майкл Иммел, Тоня Уоттс, Тамара Мелло, Селеста Русси

Описание: Умная и смешная комедия в стиле ретро о правительстве страны тиранов и королей и простой парикмахерше из Нью-Йорка. Мечтая о сказочной судьбе, парикмахерша Джой Миллер отправляется в страну Словецию, живущую по старинным обычаям, чтобы стать учительницей для троих детей мрачного овдовевшего диктатора Бориса Поченко. Джой думает, что ее нанимают из-за выдающихся парикмахерских способностей, но Борис считает, что она вполне может дать его детям научное образование. Наука (или что-то другое?) начинает творить чудеса. Открытая одухотворенность Джой поднимает паранджу традиций с пугливой Словеции. А ее находчивость и изобретательность меняет сердце Поченко… или нет?

Качество видео: HDTVRip |<a href="viewtopic.php?t=4200293" class="postLink">HDTVRip 720p</a>|
Формат видео: MP4

Видео: AVC (x264), 960x540 (2.35:1), ~1740 kbps, 23.976 fps, 0.140 bpp
Аудио 1: Русский, AСC, 48 KHz, 2 ch, 160 kbps - СТС
Аудио 2: Русский, AСC, 48 KHz, 2 ch, 160 kbps - Премьер Видео Фильм
Аудио 3: Английский, AСC, 48 KHz, 2 ch, 160 kbps
Cубтитры: русские, английские
Формат субтитров: softsub (SRT)

[b]Релиз:

</span></a></span>
ОбщееУникальный идентификатор : 211612629355802508251960171833110830988 (0x9F331C2598D98660B3B9518C2A741F8C)Полное имя : ...\The Beautician and the [email protected]Формат : MatroskaВерсия формата : Version 4 / Version 2Размер файла : 1,67 ГбайтПродолжительность : 1 ч. 47 м.Общий поток : 2229 Кбит/секНазвание фильма : The Beautician and the Beast 1997 [email protected]Дата кодирования : UTC 2016-08-10 06:22:24Программа кодирования : mkvmerge v9.3.1 ('Mask Machine') 64bitБиблиотека кодирования : libebml v1.3.4 + libmatroska v1.4.5Attachments : 500.jpg

ВидеоИдентификатор : 1Формат : AVCФормат/Информация : Advanced Video CodecПрофиль формата : [email protected]Параметр CABAC формата : ДаПараметр ReFrames формата : 8 кадровИдентификатор кодека : V_MPEG4/ISO/AVCПродолжительность : 1 ч. 47 м.Битрейт : 1739 Кбит/секШирина : 960 пикселейВысота : 540 пикселейСоотношение сторон : 16:9Режим частоты кадров : ПостоянныйЧастота кадров : 23,976 (24000/1001) кадра/секЦветовое пространство : YUVСубдискретизация насыщенности : 4:2:0Битовая глубина : 8 битТип развёртки : ПрогрессивнаяБит/(Пиксели*Кадры) : 0.140Размер потока : 1,30 Гбайт (78%)Заголовок : Rip by nnlabetikБиблиотека кодирования : x264 core 148 r2705 3f5ed56Настройки программы : cabac=1 / ref=8 / deblock=1:-2:-1 / analyse=0x3:0x113 / me=umh / subme=11 / psy=1 / psy_rd=1.00:0.00 / mixed_ref=1 / me_range=32 / chroma_me=1 / trellis=2 / 8x8dct=1 / cqm=0 / deadzone=21,11 / fast_pskip=0 / chroma_qp_offset=-2 / threads=4 / lookahead_threads=1 / sliced_threads=0 / nr=0 / decimate=1 / interlaced=0 / bluray_compat=0 / constrained_intra=0 / bframes=10 / b_pyramid=2 / b_adapt=2 / b_bias=0 / direct=3 / weightb=1 / open_gop=0 / weightp=0 / keyint=240 / keyint_min=23 / scenecut=40 / intra_refresh=0 / rc_lookahead=60 / rc=2pass / mbtree=0 / bitrate=1739 / ratetol=1.0 / qcomp=0.60 / qpmin=0 / qpmax=69 / qpstep=4 / cplxblur=20.0 / qblur=0.5 / vbv_maxrate=50000 / vbv_bufsize=62500 / nal_hrd=none / filler=0 / ip_ratio=1.35 / pb_ratio=1.25 / aq=2:1.00Язык : EnglishDefault : ДаForced : НетЦветовой диапазон : LimitedОсновные цвета : BT.709Характеристики трансфера : BT.709Коэффициенты матрицы : BT.709

Аудио #1Идентификатор : 2Формат : AACФормат/Информация : Advanced Audio CodecПрофиль формата : MainИдентификатор кодека : A_AACПродолжительность : 1 ч. 47 м.Битрейт : 163 Кбит/секКаналы : 2 каналаРасположение каналов : Front: L RЧастота : 44,1 КГцЧастота кадров : 43,066 кадра/сек (1024 spf)Метод сжатия : С потерямиРазмер потока : 125 Мбайт (7%)Заголовок : СТСЯзык : RussianDefault : ДаForced : Нет

Аудио #2Идентификатор : 3Формат : AACФормат/Информация : Advanced Audio CodecПрофиль формата : MainИдентификатор кодека : A_AACПродолжительность : 1 ч. 47 м.Битрейт : 162 Кбит/секКаналы : 2 каналаРасположение каналов : Front: L RЧастота : 44,1 КГцЧастота кадров : 43,066 кадра/сек (1024 spf)Метод сжатия : С потерямиРазмер потока : 124 Мбайт (7%)Заголовок : ПремьерЯзык : RussianDefault : НетForced : Нет

Аудио #3Идентификатор : 4Формат : AACФормат/Информация : Advanced Audio CodecПрофиль формата : MainИдентификатор кодека : A_AACПродолжительность : 1 ч. 47 м.Битрейт : 162 Кбит/секКаналы : 2 каналаРасположение каналов : Front: L RЧастота : 44,1 КГцЧастота кадров : 43,066 кадра/сек (1024 spf)Метод сжатия : С потерямиРазмер потока : 124 Мбайт (7%)Заголовок : OriginalЯзык : EnglishDefault : НетForced : Нет

Текст #1Идентификатор : 5Формат : UTF-8Идентификатор кодека : S_TEXT/UTF8Идентификатор кодека/Информация : UTF-8 Plain TextПродолжительность : 1 ч. 42 м.Битрейт : 106 бит/секCount of elements : 1134Размер потока : 80,1 Кбайт (0%)Язык : RussianDefault : НетForced : Нет

Текст #2Идентификатор : 6Формат : UTF-8Идентификатор кодека : S_TEXT/UTF8Идентификатор кодека/Информация : UTF-8 Plain TextПродолжительность : 1 ч. 42 м.Битрейт : 59 бит/секCount of elements : 1103Размер потока : 44,4 Кбайт (0%)Язык : EnglishDefault : НетForced : Нет

Меню00:00:00.000 : :Chapter 0100:01:09.240 : :Chapter 0200:03:18.760 : :Chapter 0300:04:30.520 : :Chapter 0400:06:46.040 : :Chapter 0500:09:42.760 : :Chapter 0600:14:34.040 : :Chapter 0700:16:48.920 : :Chapter 0800:21:14.240 : :Chapter 0900:23:30.600 : :Chapter 1000:30:03.720 : :Chapter 1100:33:33.880 : :Chapter 1200:37:41.000 : :Chapter 1300:40:55.320 : :Chapter 1400:43:02.200 : :Chapter 1500:49:01.920 : :Chapter 1600:50:49.840 : :Chapter 1700:52:53.480 : :Chapter 1800:54:56.600 : :Chapter 1900:56:22.320 : :Chapter 2000:58:07.160 : :Chapter 2101:01:48.360 : :Chapter 2201:03:05.400 : :Chapter 2301:05:42.480 : :Chapter 2401:08:45.920 : :Chapter 2501:13:39.520 : :Chapter 2601:16:12.120 : :Chapter 2701:17:52.040 : :Chapter 2801:21:42.160 : :Chapter 2901:26:45.080 : :Chapter 3001:30:43.120 : :Chapter 3101:33:38.760 : :Chapter 3201:37:41.200 : :Chapter 3301:39:00.800 : :Chapter 34


Трекер:  [ 11-Авг-2016 07:30 ]

  

Скачать .torrent

Размер .torrent файла 17 KB


Размер: 1.67 GB
Хэш (hash) релиза: 175008388bb2fc84c604099e9c1b64701c755b89

Еще никто не оставлял запись к записи скачать торрент [VIDEO] Парикмахерша и Чудовище The Beautician and the Beast . Будь первым!

!Обратная связь