April 2016 (20) | Aventure | Graham McTavi...

Скачать через торрент [VIDEO] Профессионал Le professionnel бесплатно русская версия torrent активатор

Статистика раздачи
Размер:  451 MB   |    Зарегистрирован:  1 год 11 месяцев   |    .torrent скачан:  25 раз   |   
Раздают:  1  
   
загрузка...
 
Автор Сообщение

Galfimbul

avatar Galfimbul


Профессионал / Le professionnel

Год выпуска: 1981
Страна: Франция
Жанр: Боевик, триллер, драма, криминал
Продолжительность: 01:47:53
Перевод: русский Профессиональный (полное дублирование) Мосфильм 1990
Режиссер: Жорж Лотнер / Georges Lautner
В ролях: Жан-Поль Бельмондо, Жан Дезайи, Робер Оссейн, Мишель Бон, Сирил Клер, Жан-Луи Ришар, Сидики Бакаба, Пьер Сентон, Мари-Кристин Декуар, Бернар-Пьер Доннадьё и другие .
Описание: Убить президента африканской республики. Такое задание получил секретный агент Жослен Бомон. Внезапно политика изменилась, и французское правительство сдает героя африканским властям. Сбежав с каторги, волк-одиночка возвращается на родину с одной целью: довести задание до конца. А чернокожий лидер как раз приезжает во Францию.
Релиз группы
Фильм снят по мотивам романа Патрика Александера «Смерть зверя с тонкой кожей» (Death of a Thin-Skinned Animal, 1976).
Последняя сцена фильма снималась в поместье замка Ля-Ферьер, неподалёку от города Рамбуйе.
Автомобили участвующие в сцене погони: Fiat-131 «Mirafiori» у главного героя и Peugeot-504 у агентов спецслужб.
В фильме главный герой вешает на мёртвого комиссара свой жетон. На жетоне надпись «BEAUMONT Josselin 56-322-460». Цифры можно расшифровать так: 56 — плотность населения на км² страны Кот-д’Ивуар (в переводе «Берег Слоновой Кости», место заключения Жосслена «Жосс» Бомона) или её номер в списке площадей стран мира на момент выхода фильма; 322 460 — площадь Кот-д’Ивуара в км².

Качество: BDRip / <a href="viewtopic.php?t=4125039" class="postLink">Blu-ray disc (custom) 1080p</a>
Формат: MP4
Видео кодек: XviD
Аудио кодек: AAC
Видео: 432x256 AR:1.69 450 kbps 24.000 fps
Аудио: [Russian] 2ch 48 kHz 128 kbps - [Dub] Профессиональный (полное дублирование) Мосфильм 1990
GeneralComplete name : D:\Torrents\Le professionnel.1981.BDRip.XviD.480x.rip by Frost O.S.mp4Format : MPEG-4Format profile : Base MediaCodec ID : isomFile size : 451 MiBDuration : 1h 47mnOverall bit rate mode : VariableOverall bit rate : 585 KbpsMovie name : Le professionnel 1981 BDRip XviD 480x rip by Frost O SContentType : Short FilmEncoded date : UTC 2016-08-09 13:44:20Tagged date : UTC 2016-08-09 13:45:29Writing application : MkvToMp4 version: 0.224 (x64)Cover : YesComment : rip by Frost O.SLongDescription : Убить президента африканской республики. Такое задание получил секретный агент Жослен Бомон. Внезапно политика изменилась, и французское правительство сдает героя африканским властям. Сбежав с каторги, волк-одиночка возвращается на родину с одной целью: довести задание до конца. А чернокожий лидер как раз приезжает во Францию.

VideoID : 1Format : MPEG-4 VisualFormat profile : Advanced [email protected] settings, BVOP : YesFormat settings, QPel : NoFormat settings, GMC : No warppointsFormat settings, Matrix : CustomCodec ID : 20Duration : 1h 47mnBit rate mode : VariableBit rate : 449 KbpsMaximum bit rate : 3 512 KbpsWidth : 432 pixelsHeight : 256 pixelsDisplay aspect ratio : 5:3Frame rate mode : ConstantFrame rate : 24.000 fpsColor space : YUVChroma subsampling : 4:2:0Bit depth : 8 bitsScan type : ProgressiveCompression mode : LossyBits/(Pixel*Frame) : 0.169Stream size : 346 MiB (77%)Title : avi_GPAC0.5.2_DEV_rev248_g39d5978_masterWriting library : XviD 1.2.1 (UTC 2008-12-04)Language : EnglishTagged date : UTC 2016-08-09 13:45:05

AudioID : 2Format : AACFormat/Info : Advanced Audio CodecFormat profile : LCCodec ID : 40Duration : 1h 47mnBit rate mode : VariableBit rate : 128 KbpsMaximum bit rate : 135 KbpsChannel(s) : 2 channelsChannel positions : Front: L RSampling rate : 48.0 KHzCompression mode : LossyStream size : 98.8 MiB (22%)Title : [Dub] Mosfilm_1990 / [Dub] Mosfilm_1990Language : RussianEncoded date : UTC 2016-08-09 13:44:35Tagged date : UTC 2016-08-09 13:45:05


Трекер:  [ 09-Авг-2016 16:00 ]

  

Скачать .torrent

Размер .torrent файла 18 KB


Размер: 451 MB
Хэш (hash) релиза: f9ae0b9301035bfd77e1f1a287ca104ca8c64f3c

Торренты, похожие на [VIDEO] Профессионал Le professionnel скачать торрент

Форум Название Автор Размер S L Добавлен
Видео (Фильмы/Клипы) ·· [VIDEO] Профессионал / Le professionnel (Жорж Лотнер / Georges Lautner) [1981, боевик, триллер, драма, криминал, BDRip] [MP4, 960x] Dub Мосфильм 1990, MVO т/к Останкино Galfimbul 24725801862.3 GB 0 0 1469560106

22:08

26-Июл-16

Еще никто не оставлял запись к записи скачать торрент [VIDEO] Профессионал Le professionnel . Будь первым!

!Обратная связь