Any Video Converter Ultimate 6 2 3 + Crack
alternative rock

Скачать через торрент музыку Сила тысячи Ikkitousen бесплатно без регистрации torrent

Статистика раздачи
Размер:  618 MB   |    Зарегистрирован:  1 год 8 месяцев   |    .torrent скачан:  17 раз   |   
Раздают:  1  
   
загрузка...
 
Автор Сообщение

Galfimbul

avatar Galfimbul



Ikkitousen
Год выпуска: 2007-2012 г.
Страна: Япония
Аудио кодек: FLAC
Тип рипа: tracks+.cue
Продолжительность: 01:44:22
01. Ikkitousen Dragon Destiny (Main Theme)
02. Tatakai
03. Yakudou (Kibou to Yorokobi) ~HEART&SOUL~
04. Yasuragi ~Garasu no Hana~
05. Ryuu no Hatsudou
06. Sousou & Moutoku no Theme
07. Ryuubi no Kakusei no Sadame
08. Battle
09. Ryuubi no Theme
10. Hiai
11. Jingle
12. Shibai no Heya ~Sanbika~
13. Ryuubi to Chouhi ~Dotabata~
14. Senran, Taitousuru Seiryoku
15. Tatakai Oete ~Yuujou~
16. Ryuuhi Hotto Hitoikki
17. Ryuuhi no Kakusei
18. Bukimi na Kinchou no Naka de
19. Teni no Theme ~Sanbika~
20. Sonsaku to Shuuyu no Nagomi
21. Gekitou
22. Kunou
23. HEART&SOUL (TV Size)
24. Ikkitousen DDR ~Dragon Destiny Radio~ Soundtrack Shucchouban
25. Garasu no Hana (TV Size)
Exact Audio Copy V1.0 beta 3 from 29. August 2011

EAC extraction logfile from 4. September 2014, 16:47

高梨康治 / 一騎当千DragonDestiny サウンドトラック&スペシャルwebラジオCD

Used drive : HL-DT-STDVDRAM GH22NS50 Adapter: 3 ID: 1

Read mode : SecureUtilize accurate stream : YesDefeat audio cache : YesMake use of C2 pointers : No

Read offset correction : 667Overread into Lead-In and Lead-Out : NoFill up missing offset samples with silence : YesDelete leading and trailing silent blocks : NoNull samples used in CRC calculations : YesUsed interface : Native Win32 interface for Win NT & 2000Gap handling : Appended to previous track

Used output format : User Defined EncoderSelected bitrate : 1024 kBit/sQuality : HighAdd ID3 tag : NoCommand line compressor : C:\Program Files\Exact Audio Copy\Flac\flac.exeAdditional command line options : -V -8 -T "Genre=%genre%" -T "Artist=%artist%" -T "Title=%title%" -T "Album=%albumtitle%" -T "Date=%year%" -T "Tracknumber=%tracknr%" -T "Comment=%comment%" %source%

TOC of the extracted CD

Track | Start | Length | Start sector | End sector --------------------------------------------------------- 1 | 0:00.00 | 2:26.29 | 0 | 10978 2 | 2:26.29 | 1:33.09 | 10979 | 17962 3 | 3:59.38 | 1:30.18 | 17963 | 24730 4 | 5:29.56 | 1:24.34 | 24731 | 31064 5 | 6:54.15 | 1:40.74 | 31065 | 38638 6 | 8:35.14 | 3:25.16 | 38639 | 54029 7 | 12:00.30 | 1:26.25 | 54030 | 60504 8 | 13:26.55 | 1:36.05 | 60505 | 67709 9 | 15:02.60 | 1:49.02 | 67710 | 75886 10 | 16:51.62 | 1:47.34 | 75887 | 83945 11 | 18:39.21 | 0:20.73 | 83946 | 85518 12 | 19:00.19 | 0:56.02 | 85519 | 89720 13 | 19:56.21 | 0:59.27 | 89721 | 94172 14 | 20:55.48 | 1:33.58 | 94173 | 101205 15 | 22:29.31 | 1:33.02 | 101206 | 108182 16 | 24:02.33 | 1:15.60 | 108183 | 113867 17 | 25:18.18 | 3:17.45 | 113868 | 128687 18 | 28:35.63 | 1:55.24 | 128688 | 137336 19 | 30:31.12 | 2:17.21 | 137337 | 147632 20 | 32:48.33 | 1:28.18 | 147633 | 154250 21 | 34:16.51 | 1:41.39 | 154251 | 161864 22 | 35:58.15 | 1:44.45 | 161865 | 169709 23 | 37:42.60 | 1:32.43 | 169710 | 176652 24 | 39:15.28 | 30:02.55 | 176653 | 311857 25 | 69:18.08 | 1:32.49 | 311858 | 318806

Track 1

Filename D:\i\01 一騎当千Dragon Destiny(メインテーマ).wav

Pre-gap length 0:00:02.00

Peak level 99.8 % Extraction speed 0.8 X Track quality 99.9 % Test CRC 5032519F Copy CRC 5032519F Track not present in AccurateRip database Copy OK

Track 2

Filename D:\i\02 戦い.wav

Pre-gap length 0:00:01.63

Peak level 99.8 % Extraction speed 1.0 X Track quality 100.0 % Test CRC FB2787E6 Copy CRC FB2787E6 Track not present in AccurateRip database Copy OK

Track 3

Filename D:\i\03 躍動(希望と喜び)~HEART&SOUL~.wav

Pre-gap length 0:00:01.63

Peak level 99.8 % Extraction speed 0.9 X Track quality 100.0 % Test CRC 5789AB06 Copy CRC 5789AB06 Track not present in AccurateRip database Copy OK

Track 4

Filename D:\i\04 安らぎ~硝子の花~.wav

Pre-gap length 0:00:02.63

Peak level 99.8 % Extraction speed 1.0 X Track quality 100.0 % Test CRC 269B6915 Copy CRC 269B6915 Track not present in AccurateRip database Copy OK

Track 5

Filename D:\i\05 龍の発動.wav

Pre-gap length 0:00:01.63

Peak level 99.8 % Extraction speed 1.1 X Track quality 100.0 % Test CRC E1027E82 Copy CRC E1027E82 Track not present in AccurateRip database Copy OK

Track 6

Filename D:\i\06 曹操&孟徳のテーマ.wav

Pre-gap length 0:00:01.63

Peak level 99.8 % Extraction speed 1.3 X Track quality 100.0 % Test CRC 17FED7A4 Copy CRC 17FED7A4 Track not present in AccurateRip database Copy OK

Track 7

Filename D:\i\07 劉備の覚醒の定め.wav

Pre-gap length 0:00:01.63

Peak level 65.8 % Extraction speed 0.8 X Track quality 99.8 % Test CRC 7EAE79EA Copy CRC 7EAE79EA Track not present in AccurateRip database Copy OK

Track 8

Filename D:\i\08 バトル.wav

Pre-gap length 0:00:01.63

Peak level 99.8 % Extraction speed 1.2 X Track quality 100.0 % Test CRC 9AB95D75 Copy CRC 9AB95D75 Track not present in AccurateRip database Copy OK

Track 9

Filename D:\i\09 劉備のテーマ.wav

Pre-gap length 0:00:01.63

Peak level 82.6 % Extraction speed 1.3 X Track quality 100.0 % Test CRC 710357EC Copy CRC 710357EC Track not present in AccurateRip database Copy OK

Track 10

Filename D:\i\10 悲哀.wav

Pre-gap length 0:00:01.63

Peak level 99.8 % Extraction speed 1.3 X Track quality 100.0 % Test CRC 5D2FFE87 Copy CRC 5D2FFE87 Track not present in AccurateRip database Copy OK

Track 11

Filename D:\i\11 JINGLE.wav

Pre-gap length 0:00:01.63

Peak level 100.0 % Extraction speed 0.6 X Track quality 100.0 % Test CRC 7CC41715 Copy CRC 7CC41715 Track not present in AccurateRip database Copy OK

Track 12

Filename D:\i\12 司馬懿の部屋~賛美歌~.wav

Pre-gap length 0:00:01.63

Peak level 99.8 % Extraction speed 1.0 X Track quality 100.0 % Test CRC C0BC795A Copy CRC C0BC795A Track not present in AccurateRip database Copy OK

Track 13

Filename D:\i\13 劉備と張飛~ドタバタ~.wav

Pre-gap length 0:00:01.63

Peak level 100.0 % Extraction speed 1.1 X Track quality 100.0 % Test CRC 178DD285 Copy CRC 178DD285 Track not present in AccurateRip database Copy OK

Track 14

Filename D:\i\14 戦乱、台頭する勢力.wav

Pre-gap length 0:00:01.63

Peak level 99.8 % Extraction speed 1.3 X Track quality 100.0 % Test CRC 70AE94F1 Copy CRC 70AE94F1 Track not present in AccurateRip database Copy OK

Track 15

Filename D:\i\15 戦い終えて~友情~.wav

Pre-gap length 0:00:01.63

Peak level 89.0 % Extraction speed 1.4 X Track quality 100.0 % Test CRC 0A285285 Copy CRC 0A285285 Track not present in AccurateRip database Copy OK

Track 16

Filename D:\i\16 劉備・ほっと一息.wav

Pre-gap length 0:00:01.63

Peak level 99.8 % Extraction speed 1.3 X Track quality 100.0 % Test CRC 12DA2D74 Copy CRC 12DA2D74 Track not present in AccurateRip database Copy OK

Track 17

Filename D:\i\17 劉備の覚醒.wav

Pre-gap length 0:00:01.63

Peak level 99.8 % Extraction speed 1.7 X Track quality 100.0 % Test CRC 17803FD7 Copy CRC 17803FD7 Track not present in AccurateRip database Copy OK

Track 18

Filename D:\i\18 不気味な緊張の中で.wav

Pre-gap length 0:00:01.63

Peak level 100.0 % Extraction speed 1.6 X Track quality 100.0 % Test CRC 970CAA47 Copy CRC 970CAA47 Track not present in AccurateRip database Copy OK

Track 19

Filename D:\i\19 典葦のテーマ~賛美歌~.wav

Pre-gap length 0:00:01.63

Peak level 89.0 % Extraction speed 1.7 X Track quality 100.0 % Test CRC 6ADE2549 Copy CRC 6ADE2549 Track not present in AccurateRip database Copy OK

Track 20

Filename D:\i\20 孫策と周瑜の和み.wav

Pre-gap length 0:00:01.63

Peak level 99.8 % Extraction speed 1.4 X Track quality 100.0 % Test CRC BDAD3185 Copy CRC BDAD3185 Track not present in AccurateRip database Copy OK

Track 21

Filename D:\i\21 激闘.wav

Pre-gap length 0:00:01.63

Peak level 100.0 % Extraction speed 1.5 X Track quality 100.0 % Test CRC 1CCFE4C7 Copy CRC 1CCFE4C7 Track not present in AccurateRip database Copy OK

Track 22

Filename D:\i\22 苦悩.wav

Pre-gap length 0:00:01.63

Peak level 88.1 % Extraction speed 1.3 X Track quality 99.8 % Test CRC AE3ACE8F Copy CRC AE3ACE8F Track not present in AccurateRip database Copy OK

Track 23

Filename D:\i\23 HEART&SOUL(TVサイズ).wav

Pre-gap length 0:00:02.63

Peak level 99.8 % Extraction speed 1.6 X Track quality 100.0 % Test CRC 9FBA9564 Copy CRC 9FBA9564 Track not present in AccurateRip database Copy OK

Track 24

Filename D:\i\24 一騎当千DDR ~Dragon Destiny Radio~ サントラ出張版 孫策.wav

Pre-gap length 0:00:01.63

Peak level 63.1 % Extraction speed 2.5 X Track quality 99.9 % Test CRC A4AC9A31 Copy CRC A4AC9A31 Track not present in AccurateRip database Copy OK

Track 25

Filename D:\i\25 硝子の花(TVサイズ).wav

Pre-gap length 0:00:01.63

Peak level 100.0 % Extraction speed 1.6 X Track quality 99.8 % Test CRC 5EB760CF Copy CRC 5EB760CF Track not present in AccurateRip database Copy OK

None of the tracks are present in the AccurateRip database

No errors occurred

End of status report

==== Log checksum 5CD04DA66201C6E26D2D4476DF935A06C7E2A9DD209FD3485442AFCFA8A3D385 ====
REM GENRE SoundtrackREM DATE 2007REM DISCID 23109A19REM COMMENT "ExactAudioCopy v1.0b3"PERFORMER "高梨康治"TITLE "一騎当千DragonDestiny サウンドトラック&スペシャルwebラジオCD"FILE "01 一騎当千Dragon Destiny(メインテーマ).wav" WAVE TRACK 01 AUDIO TITLE "一騎当千Dragon Destiny(メインテーマ)" PERFORMER "高梨康治" INDEX 01 00:00:00 TRACK 02 AUDIO TITLE "戦い" PERFORMER "高梨康治" INDEX 00 02:24:41FILE "02 戦い.wav" WAVE INDEX 01 00:00:00 TRACK 03 AUDIO TITLE "躍動(希望と喜び)~HEART&SOUL~" PERFORMER "高梨康治" INDEX 00 01:31:21FILE "03 躍動(希望と喜び)~HEART&SOUL~.wav" WAVE INDEX 01 00:00:00 TRACK 04 AUDIO TITLE "安らぎ~硝子の花~" PERFORMER "高梨康治" INDEX 00 01:27:30FILE "04 安らぎ~硝子の花~.wav" WAVE INDEX 01 00:00:00 TRACK 05 AUDIO TITLE "龍の発動" PERFORMER "高梨康治" INDEX 00 01:22:46FILE "05 龍の発動.wav" WAVE INDEX 01 00:00:00 TRACK 06 AUDIO TITLE "曹操&孟徳のテーマ" PERFORMER "高梨康治" INDEX 00 01:39:11FILE "06 曹操&孟徳のテーマ.wav" WAVE INDEX 01 00:00:00 TRACK 07 AUDIO TITLE "劉備の覚醒の定め" PERFORMER "高梨康治" INDEX 00 03:23:28FILE "07 劉備の覚醒の定め.wav" WAVE INDEX 01 00:00:00 TRACK 08 AUDIO TITLE "バトル" PERFORMER "高梨康治" INDEX 00 01:24:37FILE "08 バトル.wav" WAVE INDEX 01 00:00:00 TRACK 09 AUDIO TITLE "劉備のテーマ" PERFORMER "高梨康治" INDEX 00 01:34:17FILE "09 劉備のテーマ.wav" WAVE INDEX 01 00:00:00 TRACK 10 AUDIO TITLE "悲哀" PERFORMER "高梨康治" INDEX 00 01:47:14FILE "10 悲哀.wav" WAVE INDEX 01 00:00:00 TRACK 11 AUDIO TITLE "JINGLE" PERFORMER "高梨康治" INDEX 00 01:45:46FILE "11 JINGLE.wav" WAVE INDEX 01 00:00:00 TRACK 12 AUDIO TITLE "司馬懿の部屋~賛美歌~" PERFORMER "高梨康治" INDEX 00 00:19:10FILE "12 司馬懿の部屋~賛美歌~.wav" WAVE INDEX 01 00:00:00 TRACK 13 AUDIO TITLE "劉備と張飛~ドタバタ~" PERFORMER "高梨康治" INDEX 00 00:54:14FILE "13 劉備と張飛~ドタバタ~.wav" WAVE INDEX 01 00:00:00 TRACK 14 AUDIO TITLE "戦乱、台頭する勢力" PERFORMER "高梨康治" INDEX 00 00:57:39FILE "14 戦乱、台頭する勢力.wav" WAVE INDEX 01 00:00:00 TRACK 15 AUDIO TITLE "戦い終えて~友情~" PERFORMER "高梨康治" INDEX 00 01:31:70FILE "15 戦い終えて~友情~.wav" WAVE INDEX 01 00:00:00 TRACK 16 AUDIO TITLE "劉備・ほっと一息" PERFORMER "高梨康治" INDEX 00 01:31:14FILE "16 劉備・ほっと一息.wav" WAVE INDEX 01 00:00:00 TRACK 17 AUDIO TITLE "劉備の覚醒" PERFORMER "高梨康治" INDEX 00 01:13:72FILE "17 劉備の覚醒.wav" WAVE INDEX 01 00:00:00 TRACK 18 AUDIO TITLE "不気味な緊張の中で" PERFORMER "高梨康治" INDEX 00 03:15:57FILE "18 不気味な緊張の中で.wav" WAVE INDEX 01 00:00:00 TRACK 19 AUDIO TITLE "典葦のテーマ~賛美歌~" PERFORMER "高梨康治" INDEX 00 01:53:36FILE "19 典葦のテーマ~賛美歌~.wav" WAVE INDEX 01 00:00:00 TRACK 20 AUDIO TITLE "孫策と周瑜の和み" PERFORMER "高梨康治" INDEX 00 02:15:33FILE "20 孫策と周瑜の和み.wav" WAVE INDEX 01 00:00:00 TRACK 21 AUDIO TITLE "激闘" PERFORMER "高梨康治" INDEX 00 01:26:30FILE "21 激闘.wav" WAVE INDEX 01 00:00:00 TRACK 22 AUDIO TITLE "苦悩" PERFORMER "高梨康治" INDEX 00 01:39:51FILE "22 苦悩.wav" WAVE INDEX 01 00:00:00 TRACK 23 AUDIO TITLE "HEART&SOUL(TVサイズ)" PERFORMER "雁行真依" INDEX 00 01:41:57FILE "23 HEART&SOUL(TVサイズ).wav" WAVE INDEX 01 00:00:00 TRACK 24 AUDIO TITLE "一騎当千DDR ~Dragon Destiny Radio~ サントラ出張版 孫策" PERFORMER "高梨康治" INDEX 00 01:30:55FILE "24 一騎当千DDR ~Dragon Destiny Radio~ サントラ出張版 孫策.wav" WAVE INDEX 01 00:00:00 TRACK 25 AUDIO TITLE "硝子の花(TVサイズ)" PERFORMER "IORI" INDEX 00 30:00:67FILE "25 硝子の花(TVサイズ).wav" WAVE INDEX 01 00:00:00
01. FATE ~on the way~
02. HEART&SOUL
03. Garasu no Hana
04. NO×Limit!
05. Kage ~shape of shadow~
06. Stargazer
07. Endless Soul ~Owari Naki Senshi~
08. Warrior's Cry ~Bachou no Theme~
Exact Audio Copy V1.0 beta 3 from 29. August 2011

EAC extraction logfile from 20. July 2016, 22:01

VA / 一騎当千 歌姫ベストソング・コレクション -歌鳥風月-

Used drive : HL-DT-STDVDRAM GH22NS50 Adapter: 3 ID: 1

Read mode : SecureUtilize accurate stream : YesDefeat audio cache : YesMake use of C2 pointers : No

Read offset correction : 667Overread into Lead-In and Lead-Out : NoFill up missing offset samples with silence : YesDelete leading and trailing silent blocks : NoNull samples used in CRC calculations : YesUsed interface : Native Win32 interface for Win NT & 2000Gap handling : Appended to previous track

Used output format : User Defined EncoderSelected bitrate : 1024 kBit/sQuality : HighAdd ID3 tag : NoCommand line compressor : C:\Program Files\Exact Audio Copy\Flac\flac.exeAdditional command line options : -V -8 -T "Genre=%genre%" -T "Artist=%artist%" -T "Title=%title%" -T "Album=%albumtitle%" -T "Date=%year%" -T "Tracknumber=%tracknr%" -T "Comment=%comment%" %source%

TOC of the extracted CD

Track | Start | Length | Start sector | End sector --------------------------------------------------------- 1 | 0:00.00 | 5:01.35 | 0 | 22609 2 | 5:01.35 | 3:37.02 | 22610 | 38886 3 | 8:38.37 | 3:54.65 | 38887 | 56501 4 | 12:33.27 | 4:25.32 | 56502 | 76408 5 | 16:58.59 | 3:40.73 | 76409 | 92981 6 | 20:39.57 | 4:05.43 | 92982 | 111399 7 | 24:45.25 | 4:16.21 | 111400 | 130620 8 | 29:01.46 | 4:44.65 | 130621 | 151985

Track 1

Filename D:\i\01 FATE ~on the way~.wav

Pre-gap length 0:00:02.00

Peak level 100.0 % Extraction speed 0.9 X Track quality 99.9 % Test CRC 15672B1B Copy CRC 15672B1B Accurately ripped (confidence 2) [34CD484C] (AR v2) Copy OK

Track 2

Filename D:\i\02 HEART&SOUL.wav

Pre-gap length 0:00:02.13

Peak level 100.0 % Extraction speed 1.1 X Track quality 100.0 % Test CRC 50EE4CDB Copy CRC 50EE4CDB Accurately ripped (confidence 2) [7E42817C] (AR v2) Copy OK

Track 3

Filename D:\i\03 硝子の花.wav

Pre-gap length 0:00:02.13

Peak level 100.0 % Extraction speed 1.2 X Track quality 100.0 % Test CRC DEC0E9B4 Copy CRC DEC0E9B4 Accurately ripped (confidence 2) [180463E5] (AR v2) Copy OK

Track 4

Filename D:\i\04 NO×Limit!.wav

Pre-gap length 0:00:02.13

Peak level 100.0 % Extraction speed 1.4 X Track quality 100.0 % Test CRC DA1CC79C Copy CRC DA1CC79C Accurately ripped (confidence 2) [0935B442] (AR v2) Copy OK

Track 5

Filename D:\i\05 影~shape of shadow~.wav

Pre-gap length 0:00:02.51

Peak level 100.0 % Extraction speed 1.4 X Track quality 100.0 % Test CRC 01CCD084 Copy CRC 01CCD084 Accurately ripped (confidence 2) [B3B55B55] (AR v2) Copy OK

Track 6

Filename D:\i\06 Stargazer.wav

Pre-gap length 0:00:02.13

Peak level 89.1 % Extraction speed 1.5 X Track quality 100.0 % Test CRC 48127F07 Copy CRC 48127F07 Accurately ripped (confidence 3) [64482151] (AR v2) Copy OK

Track 7

Filename D:\i\07 Endless Soul~終わりなき戦士~.wav

Pre-gap length 0:00:02.13

Peak level 87.0 % Extraction speed 1.4 X Track quality 99.9 % Test CRC EDB33D70 Copy CRC EDB33D70 Accurately ripped (confidence 2) [2D6FD1BC] (AR v2) Copy OK

Track 8

Filename D:\i\08 Warrior's Cry~馬超のテーマ~.wav

Pre-gap length 0:00:02.13

Peak level 100.0 % Extraction speed 1.6 X Track quality 99.9 % Test CRC 2387B4B2 Copy CRC 2387B4B2 Accurately ripped (confidence 2) [4635AB31] (AR v2) Copy OK

All tracks accurately ripped

No errors occurred

End of status report

==== Log checksum A9F71C78A70756C5B500A6C1CFD95DB0C1726F79A0824E07BFAD4192A341CC5B ====
REM GENRE VocalREM DATE 2012REM DISCID 4E07EA08REM COMMENT "ExactAudioCopy v1.0b3"PERFORMER "VA"TITLE "一騎当千 歌姫ベストソング・コレクション -歌鳥風月-"FILE "01 FATE ~on the way~.wav" WAVE TRACK 01 AUDIO TITLE "FATE ~on the way~" PERFORMER "MAI-AMI" INDEX 01 00:00:00 TRACK 02 AUDIO TITLE "HEART&SOUL" PERFORMER "雁行真依" INDEX 00 04:59:22FILE "02 HEART&SOUL.wav" WAVE INDEX 01 00:00:00 TRACK 03 AUDIO TITLE "硝子の花" PERFORMER "IORI" INDEX 00 03:34:64FILE "03 硝子の花.wav" WAVE INDEX 01 00:00:00 TRACK 04 AUDIO TITLE "NO×Limit!" PERFORMER "AMI" INDEX 00 03:52:52FILE "04 NO×Limit!.wav" WAVE INDEX 01 00:00:00 TRACK 05 AUDIO TITLE "影~shape of shadow~" PERFORMER "浅葉リオ" INDEX 00 04:22:56FILE "05 影~shape of shadow~.wav" WAVE INDEX 01 00:00:00 TRACK 06 AUDIO TITLE "Stargazer" PERFORMER "増田有華" INDEX 00 03:38:60FILE "06 Stargazer.wav" WAVE INDEX 01 00:00:00 TRACK 07 AUDIO TITLE "Endless Soul~終わりなき戦士~" PERFORMER "浅野真澄, 遠藤綾" INDEX 00 04:03:30FILE "07 Endless Soul~終わりなき戦士~.wav" WAVE INDEX 01 00:00:00 TRACK 08 AUDIO TITLE "Warrior's Cry~馬超のテーマ~" PERFORMER "雁行真依" INDEX 00 04:14:08FILE "08 Warrior's Cry~馬超のテーマ~.wav" WAVE INDEX 01 00:00:00


Трекер:  [ 08-Авг-2016 19:00 ]

  

Скачать .torrent

Размер .torrent файла 16 KB


Размер: 618 MB
Хэш (hash) релиза: b0255d5e7373d470734eb6b2566cec590ae2f8fa

Еще никто не оставлял запись к записи скачать торрент Сила тысячи Ikkitousen . Будь первым!

!Обратная связь