காளி | Watch Movie | Had Done Meaning

Скачать через торрент [SERIAL] Тринадцатый апостол - Откровение Il tredicesimo apostolo - La Rivelazione бесплатно русская версия torrent активатор

Статистика раздачи
Размер:  5.64 GB   |    Зарегистрирован:  1 год 11 месяцев   |    .torrent скачан:  8 раз   |   
Раздают:  1  
   
загрузка...
 
Автор Сообщение

Galfimbul

avatar Galfimbul


Тринадцатый апостол - Откровение / Il tredicesimo apostolo - La Rivelazione2 сезон
Год выпуска: 2014
Страна: Италия
Жанр: фантастика, мистика, драма
Продолжительность: ~00:55:00
Перевод: Профессиональный (дублированный) ТВ3
Режиссер: Алексис Кехилл / Alexis Cahill
В ролях: Клаудио Джоэ (Габриэль), Стефано Пеше (Исайя), Клаудия Пандольфи (Клаудия), Луиджи Диберти (Монсеньор Деметрио Антинори), Томмазо Раньо (Сервенти), Элеонора Болла (Дария), Кармело Галати (Лука), Лаура Главан (Агата), Анна Ферцетти (Тереса), Мириам Джованелли (Ребекка Россини), Эрика Аврора (Вера), Лаура Главан (Агата) и др.
Описание: Тринадцатый апостол — телесериал о паранормальных явлениях. Главный герой Габриэль Антинори, молодой священник и одновременно профессор богословия в университе. Он работает в церковной организации «Конгрегация правды", которая изучает мир паранормальных явлений с целью проверки рационально необъяснимых явлений. Организация изучает события, в которых невозможно уловить тонкую грань между добром и злом и она пытается понять их истинную природу.
Несмотря на все трудности, Габриэль Антинори человек веры, свободен от любых предрассудков и именно из-за его нетрадиционных характера он очень ценится своими учениками.
Во время своей работы по изучению паранормальных явлений, Габриэль Антинори входит в контакт с Клаудией Мунари, психологом, которая очень трезво смотрит на вещи и всегда ищет логическое объяснение происходящему, даже тогда, когда казалось бы ничто не имеет смысла. Клаудия Мунари считает, что все происходит в человеческом разуме, но сотрудничество со священником приводит к постоянному диалогу между наукой и верой, где ни одна не может победить другую.
Доп. информация: На ТВ3 показали урезанную версию, поэтому есть места без перевода.
Качество: HDTVRip
Формат: MP4
Видео: MPEG-4 Visual, 640x360 (16:9), 1080 Kbps, 25 fps
Аудио: Русский, AAC, 2 ch, 128 Kbps, 48 KHz
01. Целитель / Il Guaritore
02. Мученица / La Martire
03. Между жизнью и смертью / Tra La Vita E La Morte
04. Обитель дьявола / La Casa Del Diavolo
05. До тех пор, пока смерть не разлучит вас / Finche Morte Non Vi Separi
06. Паранормальная связь / Legame Paranormale
07. Вера / Fede
08. Договор скрепленный кровью / Patto Di Sangue
09. Человек тьмы / L Uomo Nero
10. Плач дьявола / Il Pianto Del Demonio
11. Темная сила / Il Potere Oscuro
12. Откровение / La Rivelazione
ОбщееПолное имя : D:\Раздачи\13.Apostol.S02.2014.HDTVRip\13.Apostol.s02e01.mp4Формат : MPEG-4Профиль формата : Base Media / Version 2Идентификатор кодека : mp42 (isom/mp42/3gp5)Размер файла : 529 МбайтПродолжительность : 1 ч. 1 м.Режим общего битрейта : ПеременныйОбщий поток : 1208 Кбит/секДата кодирования : UTC 2016-08-05 04:37:14Дата пометки : UTC 2016-08-05 04:37:14

ВидеоИдентификатор : 201Формат : MPEG-4 VisualПрофиль формата : [email protected]Параметр BVOP формата : НетПараметр QPel формата : НетПараметр GMC формата : Без точки переходаПараметр матрицы формата : Default (H.263)Идентификатор кодека : 20Продолжительность : 1 ч. 1 м.Вид битрейта : ПеременныйБитрейт : 1080 Кбит/секМаксимальный битрейт : 4035 Кбит/секШирина : 640 пикселейВысота : 360 пикселейСоотношение сторон : 16:9Режим частоты кадров : ПостоянныйЧастота кадров : 25,000 кадров/секЦветовое пространство : YUVСубдискретизация насыщенности : 4:2:0Битовая глубина : 8 битТип развёртки : ПрогрессивнаяМетод сжатия : С потерямиБит/(Пиксели*Кадры) : 0.187Размер потока : 473 Мбайт (89%)Библиотека кодирования : Lavc52.30.2Дата кодирования : UTC 2016-08-05 04:37:14Дата пометки : UTC 2016-08-05 04:37:59

АудиоИдентификатор : 101Формат : AACФормат/Информация : Advanced Audio CodecПрофиль формата : LCИдентификатор кодека : 40Продолжительность : 1 ч. 1 м.Вид битрейта : ПеременныйБитрейт : 125 Кбит/секМаксимальный битрейт : 153 Кбит/секКаналы : 2 каналаРасположение каналов : Front: L RЧастота : 48,0 КГцЧастота кадров : 46,875 кадров/сек (1024 spf)Метод сжатия : С потерямиРазмер потока : 54,9 Мбайт (10%)Дата кодирования : UTC 2016-08-05 04:37:52Дата пометки : UTC 2016-08-05 04:37:59

Прочее #1Идентификатор : 2Тип : Object descriptionФормат : SystemИдентификатор кодека : 1Продолжительность : 1 с. 0 мс.Дата кодирования : UTC 2016-08-05 04:37:59Дата пометки : UTC 2016-08-05 04:37:59

Прочее #2Идентификатор : 1Тип : Scene descriptionФормат : System CoreИдентификатор кодека : 2Продолжительность : 1 с. 0 мс.Дата кодирования : UTC 2016-08-05 04:37:59Дата пометки : UTC 2016-08-05 04:37:59


Трекер:  [ 07-Авг-2016 15:00 ]

  

Скачать .torrent

Размер .torrent файла 29 KB


Размер: 5.64 GB
Хэш (hash) релиза: 155c1c2b94b84008105a7b1fbbef80fe89d6fcca

Торренты, похожие на [SERIAL] Тринадцатый апостол - Откровение Il tredicesimo apostolo - La Rivelazione скачать торрент

Форум Название Автор Размер S L Добавлен
Видео (Фильмы/Клипы) ·· [SERIAL] Тринадцатый апостол - Откровение / Il tredicesimo apostolo - La Rivelazione / Сезон: 2 / Серии: 1 - 12 из 12 (Алексис Кехилл / Alexis Cahill) [2014, фантастика, мистика, драма, SATRip] [MP4, 640x] Dub ТВ3 Galfimbul 24252644452.26 GB 0 0 1450512427

11:07

19-Дек-15

Еще никто не оставлял запись к записи скачать торрент [SERIAL] Тринадцатый апостол - Откровение Il tredicesimo apostolo - La Rivelazione . Будь первым!

!Обратная связь