LIBERADO EL EXPLOIT QUE AFE... | The Finest Hours 30692 | Télécharger Part 3

Скачать через торрент [VIDEO] Профессионал Le professionnel бесплатно русская версия torrent активатор

Статистика раздачи
Размер:  2.3 GB   |    Зарегистрирован:  1 год 11 месяцев   |    .torrent скачан:  46 раз   |   
Раздают:  1  
   
загрузка...
 
Автор Сообщение

Galfimbul

avatar Galfimbul


Профессионал / Le professionnel

Год выпуска: 1981
Страна: Франция
Жанр: Боевик, триллер, драма, криминал
Продолжительность: 01:47:56
Перевод №1: русский Профессиональный (полное дублирование) Мосфильм 1990
Перевод №1: русский Профессиональный (многоголосый, закадровый) т/к Останкино
Перевод №2: русский Профессиональный (многоголосый, закадровый) НТВ, Караченцов
Перевод №3: русский Профессиональный (многоголосый, закадровый) Неоклассика
Перевод №4: русский Профессиональный (многоголосый, закадровый) Тивионика
Перевод №5: русский Авторский (одноголосый, закадровый) Л.Володарский
Перевод №6: русский Авторский (одноголосый, закадровый) П.Прямостанов
Перевод №7: русский Авторский (одноголосый, закадровый) С.Кузнецов
Перевод №8: украинский Любительский (многоголосый, закадровый)
Оригинальная дорожка: Есть
Cубтитры: русские
Режиссер: Жорж Лотнер / Georges Lautner
В ролях: Жан-Поль Бельмондо, Жан Дезайи, Робер Оссейн, Мишель Бон, Сирил Клер, Жан-Луи Ришар, Сидики Бакаба, Пьер Сентон, Мари-Кристин Декуар, Бернар-Пьер Доннадьё и другие .
Описание: Убить президента африканской республики. Такое задание получил секретный агент Жослен Бомон. Внезапно политика изменилась, и французское правительство сдает героя африканским властям. Сбежав с каторги, волк-одиночка возвращается на родину с одной целью: довести задание до конца. А чернокожий лидер как раз приезжает во Францию.
Релиз группы
Фильм снят по мотивам романа Патрика Александера «Смерть зверя с тонкой кожей» (Death of a Thin-Skinned Animal, 1976).
Последняя сцена фильма снималась в поместье замка Ля-Ферьер, неподалёку от города Рамбуйе.
Автомобили участвующие в сцене погони: Fiat-131 «Mirafiori» у главного героя и Peugeot-504 у агентов спецслужб.
В фильме главный герой вешает на мёртвого комиссара свой жетон. На жетоне надпись «BEAUMONT Josselin 56-322-460». Цифры можно расшифровать так: 56 — плотность населения на км² страны Кот-д’Ивуар (в переводе «Берег Слоновой Кости», место заключения Жосслена «Жосс» Бомона) или её номер в списке площадей стран мира на момент выхода фильма; 322 460 — площадь Кот-д’Ивуара в км².

Качество: BDRip / <a href="viewtopic.php?t=4125039" class="postLink">Blu-ray disc (custom) 1080p</a>
Формат: MP4
Видео кодек: H.264
Аудио кодек: AAC
Видео: 904x540 AR:1.67 1740 kbps 24.000 fps
Аудио №1: [Russian] 2ch 48 kHz 128 kbps - [Dub] Профессиональный (полное дублирование) Мосфильм 1990
Аудио №2: [Russian] 2ch 48 kHz 128 kbps - [MVO] Профессиональный (многоголосый, закадровый) т/к Останкино
Аудио №3: [Russian] 2ch 48 kHz 128 kbps - [MVO] Профессиональный (многоголосый, закадровый) НТВ, Караченцов
Аудио №4: [Russian] 2ch 48 kHz 128 kbps - [MVO] Профессиональный (многоголосый, закадровый) Неоклассика
Аудио №5: [Russian] 2ch 48 kHz 128 kbps - [MVO] Профессиональный (многоголосый, закадровый) Тивионика
Аудио №6: [Russian] 2ch 48 kHz 128 kbps - [VO] Авторский (одноголосый, закадровый) Л.Володарский
Аудио №7: [Russian] 2ch 48 kHz 128 kbps - [VO] Авторский (одноголосый, закадровый) П.Прямостанов
Аудио №8: [Russian] 2ch 48 kHz 128 kbps - [VO] Авторский (одноголосый, закадровый) С.Кузнецов
Аудио №9: [Ukrainnian] 2ch 48 kHz 128 kbps - [VO] Любительский (многоголосый, закадровый)
Аудио №10: [French] 2ch 48 kHz 128 kbps - Оригинал (французский)
avs [info]: 904x540p 1:1 @ 24/1 fps (cfr)
x264 [info]: using SAR=1/1
x264 [info]: using cpu capabilities: MMX2 SSE2Fast SSSE3 SSE4.2 LZCNT
x264 [info]: profile High, level 4.1

x264 [info]: frame I:1065 Avg QP:19.05 size: 83869
x264 [info]: frame P:31830 Avg QP:22.63 size: 21907
x264 [info]: frame B:122457 Avg QP:25.61 size: 5073
x264 [info]: consecutive B-frames: 1.4% 1.8% 7.0% 15.5% 18.4% 46.7% 6.1% 1.7% 0.8% 0.6%
x264 [info]: mb I I16..4: 4.5% 77.2% 18.3%
x264 [info]: mb P I16..4: 0.7% 6.7% 1.1% P16..4: 37.4% 38.9% 11.3% 0.0% 0.0% skip: 3.8%
x264 [info]: mb B I16..4: 0.1% 0.7% 0.1% B16..8: 38.6% 12.7% 1.6% direct: 3.2% skip:43.0% L0:44.8% L1:46.4% BI: 8.8%
x264 [info]: 8x8 transform intra:79.0% inter:63.2%
x264 [info]: direct mvs spatial:98.7% temporal:1.3%
x264 [info]: coded y,uvDC,uvAC intra: 90.7% 76.7% 43.6% inter: 19.6% 16.7% 4.7%
x264 [info]: i16 v,h,dc,p: 40% 16% 3% 41%
x264 [info]: i8 v,h,dc,ddl,ddr,vr,hd,vl,hu: 8% 7% 5% 11% 16% 14% 14% 12% 12%
x264 [info]: i4 v,h,dc,ddl,ddr,vr,hd,vl,hu: 13% 9% 4% 8% 15% 14% 14% 11% 12%
x264 [info]: i8c dc,h,v,p: 35% 25% 21% 19%
x264 [info]: Weighted P-Frames: Y:7.3% UV:2.6%
x264 [info]: ref P L0: 42.0% 13.8% 19.3% 6.2% 6.1% 3.9% 4.2% 1.9% 2.4% 0.2% 0.0%
x264 [info]: ref B L0: 78.1% 10.2% 4.6% 2.4% 1.7% 1.6% 0.9% 0.4%
x264 [info]: ref B L1: 95.7% 4.3%
x264 [info]: kb/s:1740.03

encoded 155352 frames, 6.49 fps, 1740.03 kb/s
GeneralComplete name : D:\Torrents\Le professionnel.1981.BDRip.x264.960x.rip by Frost O.S.mp4Format : MPEG-4Format profile : Base MediaCodec ID : isomFile size : 2.30 GiBDuration : 1h 47mnOverall bit rate mode : VariableOverall bit rate : 3 054 KbpsMovie name : Le professionnel 1981 BDRip x264 960x rip by Frost O SGenre : ActionContentType : Short FilmEncoded date : UTC 2016-07-26 18:35:29Tagged date : UTC 2016-07-26 18:49:19Writing application : MkvToMp4 version: 0.224 (x64)Cover : YesComment : rip by Frost O.SLongDescription : Убить президента африканской республики. Такое задание получил секретный агент Жослен Бомон. Внезапно политика изменилась, и французское правительство сдает героя африканским властям. Сбежав с каторги, волк-одиночка возвращается на родину с одной целью: довести задание до конца. А чернокожий лидер как раз приезжает во Францию.

VideoID : 1Format : AVCFormat/Info : Advanced Video CodecFormat profile : [email protected] settings, CABAC : YesFormat settings, ReFrames : 9 framesCodec ID : avc1Codec ID/Info : Advanced Video CodingDuration : 1h 47mnBit rate : 1 740 KbpsMaximum bit rate : 12.3 MbpsWidth : 904 pixelsHeight : 540 pixelsDisplay aspect ratio : 5:3Frame rate mode : ConstantFrame rate : 24.000 fpsColor space : YUVChroma subsampling : 4:2:0Bit depth : 8 bitsScan type : ProgressiveBits/(Pixel*Frame) : 0.149Stream size : 1.31 GiB (57%)Writing library : x264 core 148 r2705 3f5ed56Encoding settings : cabac=1 / ref=9 / deblock=1:-3:-3 / analyse=0x3:0x113 / me=hex / subme=11 / psy=1 / psy_rd=1.00:0.05 / mixed_ref=1 / me_range=16 / chroma_me=1 / trellis=2 / 8x8dct=1 / cqm=0 / deadzone=21,11 / fast_pskip=0 / chroma_qp_offset=-3 / threads=3 / lookahead_threads=1 / sliced_threads=0 / nr=0 / decimate=0 / interlaced=0 / bluray_compat=0 / constrained_intra=0 / bframes=9 / b_pyramid=2 / b_adapt=2 / b_bias=0 / direct=3 / weightb=1 / open_gop=0 / weightp=2 / keyint=250 / keyint_min=24 / scenecut=40 / intra_refresh=0 / rc_lookahead=60 / rc=2pass / mbtree=1 / bitrate=1740 / ratetol=1.0 / qcomp=0.60 / qpmin=0 / qpmax=69 / qpstep=4 / cplxblur=20.0 / qblur=0.5 / ip_ratio=1.40 / aq=2:0.80Language : EnglishEncoded date : UTC 2016-07-26 18:35:29Tagged date : UTC 2016-07-26 18:39:57Color range : LimitedColor primaries : BT.709Transfer characteristics : BT.709Matrix coefficients : BT.709

Audio #1ID : 2Format : AACFormat/Info : Advanced Audio CodecFormat profile : LCCodec ID : 40Duration : 1h 47mnBit rate mode : VariableBit rate : 128 KbpsMaximum bit rate : 135 KbpsChannel(s) : 2 channelsChannel positions : Front: L RSampling rate : 48.0 KHzCompression mode : LossyStream size : 98.8 MiB (4%)Title : [Dub] Mosfilm_1990 / [Dub] Mosfilm_1990Language : RussianEncoded date : UTC 2016-07-26 18:36:43Tagged date : UTC 2016-07-26 18:39:57

Audio #2ID : 3Format : AACFormat/Info : Advanced Audio CodecFormat profile : LCCodec ID : 40Duration : 1h 47mnBit rate mode : VariableBit rate : 128 KbpsMaximum bit rate : 132 KbpsChannel(s) : 2 channelsChannel positions : Front: L RSampling rate : 48.0 KHzCompression mode : LossyStream size : 98.8 MiB (4%)Title : [MVO] Ostankino / [MVO] OstankinoLanguage : RussianEncoded date : UTC 2016-07-26 18:36:53Tagged date : UTC 2016-07-26 18:39:57

Audio #3ID : 4Format : AACFormat/Info : Advanced Audio CodecFormat profile : LCCodec ID : 40Duration : 1h 47mnBit rate mode : VariableBit rate : 128 KbpsMaximum bit rate : 132 KbpsChannel(s) : 2 channelsChannel positions : Front: L RSampling rate : 48.0 KHzCompression mode : LossyStream size : 98.8 MiB (4%)Title : [MVO] HTB_Karachencov / [MVO] HTB_KarachencovLanguage : RussianEncoded date : UTC 2016-07-26 18:37:46Tagged date : UTC 2016-07-26 18:39:57

Audio #4ID : 5Format : AACFormat/Info : Advanced Audio CodecFormat profile : LCCodec ID : 40Duration : 1h 47mnBit rate mode : VariableBit rate : 128 KbpsMaximum bit rate : 135 KbpsChannel(s) : 2 channelsChannel positions : Front: L RSampling rate : 48.0 KHzCompression mode : LossyStream size : 98.8 MiB (4%)Title : [MVO] Neoklassica / [MVO] NeoklassicaLanguage : RussianEncoded date : UTC 2016-07-26 18:38:13Tagged date : UTC 2016-07-26 18:39:57

Audio #5ID : 6Format : AACFormat/Info : Advanced Audio CodecFormat profile : LCCodec ID : 40Duration : 1h 47mnBit rate mode : VariableBit rate : 128 KbpsMaximum bit rate : 131 KbpsChannel(s) : 2 channelsChannel positions : Front: L RSampling rate : 48.0 KHzCompression mode : LossyStream size : 98.8 MiB (4%)Title : [MVO] Tivionika / [MVO] TivionikaLanguage : RussianEncoded date : UTC 2016-07-26 18:38:29Tagged date : UTC 2016-07-26 18:39:57

Audio #6ID : 7Format : AACFormat/Info : Advanced Audio CodecFormat profile : LCCodec ID : 40Duration : 1h 47mnBit rate mode : VariableBit rate : 128 KbpsMaximum bit rate : 135 KbpsChannel(s) : 2 channelsChannel positions : Front: L RSampling rate : 48.0 KHzCompression mode : LossyStream size : 98.8 MiB (4%)Title : [VO] Volodarskiy / [VO] VolodarskiyLanguage : RussianEncoded date : UTC 2016-07-26 18:38:45Tagged date : UTC 2016-07-26 18:39:57

Audio #7ID : 8Format : AACFormat/Info : Advanced Audio CodecFormat profile : LCCodec ID : 40Duration : 1h 47mnBit rate mode : VariableBit rate : 128 KbpsMaximum bit rate : 131 KbpsChannel(s) : 2 channelsChannel positions : Front: L RSampling rate : 48.0 KHzCompression mode : LossyStream size : 98.8 MiB (4%)Title : [VO] Pryamostanov / [VO] PryamostanovLanguage : RussianEncoded date : UTC 2016-07-26 18:38:58Tagged date : UTC 2016-07-26 18:39:57

Audio #8ID : 9Format : AACFormat/Info : Advanced Audio CodecFormat profile : LCCodec ID : 40Duration : 1h 47mnBit rate mode : VariableBit rate : 128 KbpsMaximum bit rate : 132 KbpsChannel(s) : 2 channelsChannel positions : Front: L RSampling rate : 48.0 KHzCompression mode : LossyStream size : 98.8 MiB (4%)Title : [VO] Kuznecov / [VO] KuznecovLanguage : RussianEncoded date : UTC 2016-07-26 18:39:14Tagged date : UTC 2016-07-26 18:39:57

Audio #9ID : 10Format : AACFormat/Info : Advanced Audio CodecFormat profile : LCCodec ID : 40Duration : 1h 47mnBit rate mode : VariableBit rate : 128 KbpsMaximum bit rate : 133 KbpsChannel(s) : 2 channelsChannel positions : Front: L RSampling rate : 48.0 KHzCompression mode : LossyStream size : 98.8 MiB (4%)Title : Ukrainian / UkrainianLanguage : UkrainianEncoded date : UTC 2016-07-26 18:39:25Tagged date : UTC 2016-07-26 18:39:57

Audio #10ID : 11Format : AACFormat/Info : Advanced Audio CodecFormat profile : LCCodec ID : 40Duration : 1h 47mnBit rate mode : VariableBit rate : 128 KbpsMaximum bit rate : 131 KbpsChannel(s) : 2 channelsChannel positions : Front: L RSampling rate : 48.0 KHzCompression mode : LossyStream size : 98.8 MiB (4%)Title : [Original] / [Original]Language : FrenchEncoded date : UTC 2016-07-26 18:39:37Tagged date : UTC 2016-07-26 18:39:57

TextID : 12Format : Timed TextMuxing mode : sbtlCodec ID : tx3gDuration : 1h 45mnBit rate mode : VariableBit rate : 78 bpsStream size : 59.9 KiB (0%)Language : RussianEncoded date : UTC 2016-07-26 18:39:57Tagged date : UTC 2016-07-26 18:39:57


Трекер:  [ 26-Июл-2016 21:00 ]

  

Скачать .torrent

Размер .torrent файла 12 KB


Размер: 2.3 GB
Хэш (hash) релиза: 84e800abc65b95dcfb41bb1489fedf82ae89c146

Торренты, похожие на [VIDEO] Профессионал Le professionnel скачать торрент

Форум Название Автор Размер S L Добавлен
Видео (Фильмы/Клипы) ·· [VIDEO] Профессионал / Le professionnel (Жорж Лотнер / Georges Lautner) [1981, боевик, триллер, драма, криминал, BDRip] [MP4, 480x] Dub Galfimbul 473006116451 MB 0 0 1470751420

17:03

9-Авг-16

Еще никто не оставлял запись к записи скачать торрент [VIDEO] Профессионал Le professionnel . Будь первым!

!Обратная связь