วันพีช 608 | Theeran Adhigaaram Ondru (2017) (HDRip) | Joseph Thiaka

Скачать через торрент [SERIAL] Таинственный портал Foreign Exchange бесплатно русская версия torrent активатор

Статистика раздачи
Размер:  2.13 GB   |    Зарегистрирован:  2 года   |    .torrent скачан:  42 раза   |   
Раздают:  1  
   
загрузка...
 
Автор Сообщение

Galfimbul

avatar Galfimbul


Таинственный портал / Foreign ExchangeСезон: 1
Год выпуска: 2004
Страна: Австралия, Ирландия
Жанр: фантастика, приключения
Продолжительность: 00:24:00
Перевод: Профессиональный (многоголосый закадровый) [СТС]
Cубтитры: Отсутствуют
Режиссер: Джеймс Богл / James Bogle
В ролях: Заккари Гарред, Линн Стайлз, Даниэль Фокс-Кларк, Роберт Шиэн, Челси Джонс, Барбара Гриффин
Описание: Это история двух подростков, которые буквально "вломились" в жизнь друг друга, пройдя через "магнитный тоннель" между Австралией и Ирландией. Герои не собираются делиться своим секретом с окружающими, но скрыть подобную находку довольно трудно. Перед нами настоящая комедия положений, с динамичным и оригинальным сюжетом. Живописные и достоверные виды Австралии и Ирландии, ненавязчивый юмор и множество головокружительных переделок, выпутаться из которых на первый взгляд невозможно - всё это щедро представлено в сериале. На разработку сценария ушло четыре года, и по результату видно, что время было потрачено не зря.

Качество: SATRip
Формат: AVI
Видео: XviD, 320x240 (4:3), ~350 kbps, 25 fps
Аудио: RUS, MP3, 2 ch, 128 kbps, 48 KHz
Полное имя : D:\Раздачи\Foreign Exchange (SATRip)\1x01 Portal [СТС].aviФормат : AVIФормат/Информация : Audio Video InterleaveРазмер файла : 84,0 МбайтПродолжительность : 23 м.Общий поток : 489 Кбит/секПрограмма кодирования : MEncoder SVN-r29352(20090610-gcc4.3.3)Библиотека кодирования : MPlayer

ВидеоИдентификатор : 0Формат : MPEG-4 VisualПрофиль формата : Advanced [email protected]Параметр BVOP формата : 2Параметр QPel формата : НетПараметр GMC формата : Без точки переходаПараметр матрицы формата : Default (H.263)Идентификатор кодека : XVIDИдентификатор кодека/Подсказка : XviDПродолжительность : 23 м.Битрейт : 348 Кбит/секШирина : 320 пикселейВысота : 240 пикселейСоотношение сторон : 4:3Частота кадров : 25,000 кадров/секЦветовое пространство : YUVСубдискретизация насыщенности : 4:2:0Битовая глубина : 8 битТип развёртки : ПрогрессивнаяМетод сжатия : С потерямиБит/(Пиксели*Кадры) : 0.181Размер потока : 59,8 Мбайт (71%)Библиотека кодирования : XviD 1.2.1 (UTC 2008-12-04)

АудиоИдентификатор : 1Формат : MPEG AudioВерсия формата : Version 1Профиль формата : Layer 3Режим : Joint stereoРасширение режима : MS StereoИдентификатор кодека : 55Идентификатор кодека/Подсказка : MP3Продолжительность : 23 м.Вид битрейта : ПостоянныйБитрейт : 128 Кбит/секКаналы : 2 каналаЧастота : 48,0 КГцМетод сжатия : С потерямиЗадержка видео : 40 мс.Размер потока : 22,0 Мбайт (26%)Выравнивание : Соединение по промежуткамПродолжительность промежутка : 24 мс. (0,60 видеокадр)Время предзагрузки промежутка : 504 мс.


Трекер:  [ 22-Июл-2016 10:30 ]

  

Скачать .torrent

Размер .torrent файла 12 KB


Размер: 2.13 GB
Хэш (hash) релиза: 8bf5a0f1ca461ff4d796bcb6b70ec0bc47411957

Еще никто не оставлял запись к записи скачать торрент [SERIAL] Таинственный портал Foreign Exchange . Будь первым!

!Обратная связь