Short Stories | La nuit des rois | KanColle: Fleet Girls Collection

Скачать через торрент [MULT] Приключения Папируса Papyrus бесплатно русская версия torrent активатор

Статистика раздачи
Размер:  4.23 GB   |    Зарегистрирован:  2 года   |    .torrent скачан:  36 раз   |   
Раздают:  1  
   
загрузка...
 
Автор Сообщение

Galfimbul

avatar Galfimbul


Приключения Папируса / PapyrusСезоны: 1 - 2
Год выпуска: 1998-2000
Страна: Франция - Канада
Жанр: Приключения
Продолжительность: 00:24:34
Перевод: Профессиональный (дублированный)
Cубтитры: Отсутствуют
Режиссер: Мишель Готье / Michel Gauthier
Описание: Действие этого захватывающего мультсериала по книге Люсьена де Житера «Чудесные приключения Папируса» (Les aventures merveilleuses de Papyrus) происходит в Древнем Египте времен Рамзеса Второго. Юный Папирус ― простой рыбак, живущий обычной жизнью, но боги решили изменить ее. Они сделали его избранным. Миссия Папируса ― освободить бога солнца Гора, победить коварного и злого бога Сета, мечтающего захватить власть, и восстановить мир в Египте. Для этого юноша получит волшебный меч, который рассеивает темные чары. Магическая сила меча зависит от храбрости его обладателя. Помимо помощи богов Папируса вдохновляет на подвиги дочь фараона, красавица Тети-Шери.
Древнеегипетская мифология, увлекательный сюжет, красочная анимация сделали этот многосерийный мультфильм одним из лучших в Европе.

Качество: SATRip
Формат: AVI
Видео: XviD, 320x240 (4:3), ~350 kbps, 25 fps
Аудио: RUS, MP3, 2 ch, 128 kbps, 48 KHz
Сезон 1:
01 - La momie engloutie (Мумия)
02 - La colère du dieu lune (Гнев бога луны)
03 - Le seigneur des crocodiles (Повелитель крокодилов)
04 - La vengeance des Ramsès (Месть Рамзеса)
05 - Le colosse sans visage (Безликий колосс)
06 - Le pharaon maudit (Проклятый фараон)
07 - Le soleil noir de Seth (Черное солнце Сета)
08 - La métamorphose d'Imhotep (Трава жизни)
09 - Le labyrinthe (Лабиринт)
10 - Le triomphe de Bastet (Триумф Баст)
11 - La cité des scribes (Город писцов)
12 - Le démon des monts rouges (Демон красных гор)
13 - La plume d'or du grand faucon (Перо бога-сокола)
14 - Le réveil du sphinx rouge (Пробуждение красного сфинкса)
15 - L'égyptien blanc (Седовласый египтянин)
16 - La harpe d'Hathor (Арфа Атор)
17 - Le sarcophage oublié (Заветный саркофаг)
18 - La maison de vie (Дом жизни)
19 - La revanche d'Amon (Месть Амона)
20 - La renaissance de l'enfant pharaon (Юный фараон)
21 - Les larmes de géants (Слезы колоссов)
22 - L'enfant hiéroglyphe (Сын зодчего)
23 - Le maître des trois portes (Хранитель трех врат)
24 - La pyramide noire (Черная пирамида)
25 - Le miroir de Nebou (Зеркало Небу)
26 - La deuxième crue du fleuve sacré (Высокие воды)

Сезон 2:
1 - Le sacrilège de Papyrus (Святотатство Папируса)
2 - Mika la magicienne (Мика-чародейка)
3 - La trentième case du senet maudit (На 30-ой клетки игры cенет)
4 - La justice de Thoueris (Правосудие Туэрис)
5 - Le réveil d’Osiris (Пробуждение Осириса)
6 - Le babouin blanc (Белый бабуин)
7 - Le pays volé (Похищенная страна)
8 - Les 4 chapelles de Toutankhamon (Четыре залы Тутанхамона)
9 - Le divin potier (Божественный гончар)
10 - Le retour de Senkhet (Возвращение Сенхет)
11 - Le talisman de la grande pyramide (Талисман великой пирамиды)
12 - Yam (Йам)
13 - Le temps de la discorde (Время раздора)
14 - Les 7 noeuds d'Horus (Семь узлов Хора)
15 - Le renoncement de Papyrus (Отречение Папируса)
16 - Le Nil rouge (Красный Нил)
17 - La couronne sacrée d'Ouadjet (Священная корона Уаджет)
18 - Neferourê (Неферовей)
19 - Les émissaires (Послы)
20 - Princesse Tiya (Принцесса Тийа)
21 - La princesse des étoiles (Принцесса звезд)
22 - L'enfant sacré d'Ebla (Священное дитя Эблы)
23 - L'arbre Ished (Древо Ишед)
24 - Le pilier Djed (Колонна Джед)
25 - Le procès de Papyrus (Суд над Папирусом)
26 - Le cauchemar (Мир кошмаров)
Полное имя : D:\Раздачи\Papyrus_s01-02_(SATRip)\Season 1\s01e01 Mumiya.aviФормат : AVIФормат/Информация : Audio Video InterleaveРазмер файла : 86,4 МбайтПродолжительность : 24 м.Общий поток : 491 Кбит/секПрограмма кодирования : MEncoder SVN-r29352(20090610-gcc4.3.3)Библиотека кодирования : MPlayer

ВидеоИдентификатор : 0Формат : MPEG-4 VisualПрофиль формата : Advanced [email protected]Параметр BVOP формата : 2Параметр QPel формата : НетПараметр GMC формата : Без точки переходаПараметр матрицы формата : Default (H.263)Идентификатор кодека : XVIDИдентификатор кодека/Подсказка : XviDПродолжительность : 24 м.Битрейт : 350 Кбит/секШирина : 320 пикселейВысота : 240 пикселейСоотношение сторон : 4:3Частота кадров : 25,000 кадров/секЦветовое пространство : YUVСубдискретизация насыщенности : 4:2:0Битовая глубина : 8 битТип развёртки : ПрогрессивнаяМетод сжатия : С потерямиБит/(Пиксели*Кадры) : 0.182Размер потока : 61,6 Мбайт (71%)Библиотека кодирования : XviD 1.2.1 (UTC 2008-12-04)

АудиоИдентификатор : 1Формат : MPEG AudioВерсия формата : Version 1Профиль формата : Layer 3Режим : Joint stereoРасширение режима : MS StereoИдентификатор кодека : 55Идентификатор кодека/Подсказка : MP3Продолжительность : 24 м.Вид битрейта : ПостоянныйБитрейт : 128 Кбит/секКаналы : 2 каналаЧастота : 48,0 КГцМетод сжатия : С потерямиЗадержка видео : 40 мс.Размер потока : 22,5 Мбайт (26%)Выравнивание : Соединение по промежуткамПродолжительность промежутка : 24 мс. (0,60 видеокадр)Время предзагрузки промежутка : 504 мс.


Трекер:  [ 12-Июл-2016 10:30 ]

  

Скачать .torrent

Размер .torrent файла 25 KB


Размер: 4.23 GB
Хэш (hash) релиза: b26d35cf6365343370cf1740d8450f9d7c04ce67

Еще никто не оставлял запись к записи скачать торрент [MULT] Приключения Папируса Papyrus . Будь первым!

!Обратная связь