forza motorsport 7 cpy | nanci griffith | sfida negli abissi

Скачать через торрент Жили-были... первооткрыватели Il etait une fois ... decouvreurs Фильм бесплатно в хорошем качестве torrent

Скачивайте на UnionPeer.org фильмы через торрент без регистрации. Новинки кино в хорошем качестве через торрент. На UnionPeer.org можно скачать через торрент фильмы 2014 и 2015 годов. Самые новые фильмы.

Скачать торрент Жили-были... первооткрыватели Il etait une fois ... decouvreurs бесплатно через .torrent фильм мультфильм сериал

Статистика раздачи
Размер:  17.3 GB   |    Зарегистрирован:  2 года   |    .torrent скачан:  69 раз   |   
Раздают:  1  
   
загрузка...
 
Автор Сообщение

Galfimbul

avatar Galfimbul


Жили-были... первооткрыватели / Il etait une fois ... decouvreurs
Серии 01-08, 10-26 из 26


Страна: Франция.
Жанр: Мультсериал, семейный, история.
Продолжительность: 00:25:00 мин./серия.
Год выпуска: 1994.
Перевод: Профессиональный (дублированный)
Русские субтитры: Нет.

Режиссёр: Альбер Барийе / Albert Barille.
Роли озвучивали: Альбер Ожье, Мари-Лор Бенестон, Роже Карель, Оливье Дестре, Мишель Полин, Патрик Прежан, Сади Реббо, Жиль Тамиз, Йозеф Мейнрад.

Описание: Мир, который нас окружает, состоит из множества привычных, на первый взгляд, вещей. Но так было не всегда. Ученым пришлось приложить немало сил, знаний и умений, чтобы добиться этого. Вместе с героями сериала - несколькими любопытными малышами, среди которых есть и ленивые скептики, и настоящие всезнайки, школьники выяснят, кто придумал географические карты, как китайцы изобрели фарфор, бумагу и порох, как люди научились измерять время. Начальные познания в физике, математике, астрономии, биологии, химии, а также во многих других точных и естественных науках помогут маленькому зрителю лучше усвоить школьную программу и даже блеснуть на олимпиадах.



Релиз:

Качество видео: DVB
Формат видео: MPEG-PS
Видео: MPEG2 Video, 704x576, 25 fps, 3 556 kbps
Аудио: MPEG Audio, 2 сh, 48 kHz, 192 kbps

<a href="tracker.php?nm=Il%20etait%20une%20fois...%20les%20decouvreurs" class="postLink">АЛЬТЕРНАТИВНЫЕ РАЗДАЧИ МУЛЬТСЕРИАЛА</a>
01 Наши предки китайцы
02 Архимед и древние греки
03 Герон Александрийский
04 Как измерить время
05 Генрих Мореплаватель и картография
06 Гутенберг и книгопечатание
07 Леонардо да Винчи
08 Врачи
10 Ньютон
11 Бюффон. Как было открыто прошлое
12 Лавуазье и химия
13 Стефенсон. Изобретение паровоза
14 Фарадей и электричество
15 Дарвин и теория эволюции
16 Мендель и горох
17 Пастер и микроорганизмы
18 Эдисон и прикладная наука
19 Маркони и электромагнитные волны
20 Форд и история автомобиля
21 Авиация
22 Мария Кюри
23 Энштейн
24 Лоренц гусиный папа
25 Армстронг, луна и космос
26 Будущее
General
Complete name : G:\ТОЧКА\Мультсериалы\Жили-были... первооткрыватели\02 Жили-были первооткрыватели. Архимед и древние греки.mpg
Format : MPEG-PS
File size : 722 MiB
Duration : 26mn 24s
Overall bit rate mode : Variable
Overall bit rate : 3 824 Kbps

Video
ID : 224 (0xE0)
Format : MPEG Video
Format version : Version 2
Format profile : [email protected]
Format settings, BVOP : Yes
Format settings, Matrix : Custom
Format settings, GOP : Variable
Format settings, picture st : Frame
Duration : 26mn 24s
Bit rate mode : Variable
Bit rate : 3 556 Kbps
Maximum bit rate : 15.0 Mbps
Width : 704 pixels
Height : 576 pixels
Display aspect ratio : 4:3
Frame rate : 25.000 fps
Standard : PAL
Color space : YUV
Chroma subsampling : 4:2:0
Bit depth : 8 bits
Scan type : Interlaced
Scan order : Top Field First
Compression mode : Lossy
Bits/(Pixel*Frame) : 0.351
Time code of first frame : 00:00:00:00
Time code source : Group of pictures header
GOP, Open/Closed : Open
GOP, Open/Closed of first f : Closed
Stream size : 672 MiB (93%)

Audio
ID : 192 (0xC0)
Format : MPEG Audio
Format version : Version 1
Format profile : Layer 2
Duration : 26mn 24s
Bit rate mode : Constant
Bit rate : 192 Kbps
Channel(s) : 2 channels
Sampling rate : 48.0 KHz
Compression mode : Lossy
Delay relative to video : 11ms
Stream size : 36.3 MiB (5%)
<a href="tracker.php?rid=13604994" class="postLink">МОИ РАЗДАЧИ</a>
НЕ ЗАБЫВАЕМ БЛАГОДАРИТЬ НАЖАТИЕМ КНОПОЧКИ "СПАСИБО"

Трекер:  [ 03-Июн-2016 11:00 ]

  

Скачать .torrent

Размер .torrent файла 45 KB


Размер: 17.3 GB
Хэш (hash) релиза: 6e1e0f1cc573d197510c351566063e242d081302
Подписка на обновления:

Еще никто не оставлял запись к записи скачать торрент Жили-были... первооткрыватели Il etait une fois ... decouvreurs . Будь первым!

!Обратная связь