You raise me up | The Guest Book | Télécharger Part 8

Скачать через торрент [VIDEO] От заката до рассвета: Трилогия From Dusk Till Dawn: Trilogy бесплатно русская версия torrent активатор

Статистика раздачи
Размер:  4.88 GB   |    Зарегистрирован:  2 года 1 месяц   |    .torrent скачан:  71 раз   |   
Раздают:  1  
   
загрузка...
 
Автор Сообщение

Galfimbul

avatar Galfimbul


От заката до рассвета: Трилогия / From Dusk Till Dawn: Trilogy

От заката до рассвета / From Dusk Till Dawn«How far can Too Far go?»

Год выпуска: 1996
Страна: США
Жанр: ужасы, фэнтези, боевик, триллер, комедия, криминал
Продолжительность: 01:47:59
Перевод №1: Профессиональный (многоголосый, закадровый)
Перевод №2: Профессиональный (многоголосый, закадровый) Премьер Фильм
Перевод №3: Авторский (одноголосый, закадровый) Дмитрий Пучков (Гоблин)
Перевод №4: Авторский (одноголосый, закадровый) Андрей Гаврилов
Перевод №5: Авторский (одноголосый, закадровый) Юрий Живов
Оригинальная дорожка: Есть
Cубтитры: Русские, украинские, Гоблин, английские (отключаемые, Softsub)
Режиссер: Роберт Родригес / Robert Rodriguez
В ролях: Джордж Клуни / George Clooney, Харви Кейтель / Harvey Keitel, Квентин Тарантино / Quentin Tarantino, Джульетт Льюис / Juliette Lewis, Эрнест Лю / Ernest Liu, Сальма Хайек / Salma Hayek, Чич Марин / Cheech Marin, Дэнни Трехо / Danny Trejo, Том Савини / Tom Savini, Фред Уильямсон / Fred Williamson, Майкл Паркс / Michael Parks, Бренда Хиллхаус / Brenda Hillhouse и другие .
Описание: Спасаясь от полиции после ограбления банка, два брата — грабителя берут в заложники священника и его детей. Около американской границы они решают провести ночь в придорожном баре. Тут-то всё и начинается…
Релиз группы

Ссылки на предыдущие фильмы, к которым был причастен Квентин Тарантино («Криминальное чтиво» (1994), «Настоящая любовь» (1993) и «Бешеные псы» (1992)):
- «Бургеры Кахуна»
- сигареты «Red Apple»
- фраза Сета: «Ну что, бродяги, побрели» (Okay ramblers, let`s get rambling).
Пистолет Секс-Машины (Том Савини) можно заметить в футляре Музыканта в фильме «Отчаянный» (1995), режиссером которого также был Роберт Родригез.
В различных сценах фильма можно заметить вымышленную марку пива «Chango». То же самое пиво появляется в других картинах Роберта Родригеза — «Отчаянный» (1995) и «Город грехов» (2005).
В забегаловке, где мы впервые встречаем Якова, Кейт и Скотта, можно заметить Лоуренса Бендера, исполнительного продюсера фильма.
Фраза «У меня есть шесть маленьких друзей, и все они бегают быстрее тебя» — это ссылка на «Эту дикую кошку» (1965).
Вопрос Кейт «Что там в Мексике?» и ответ Ричи «Мексиканцы» позаимствованы из картины «Дикая банда» (1969).
Группа, играющая в клубе — Tito & Tarantula.
Когда Бритва Чарли объявляет выход Сантанико Пандемониум («Владычица тьмы, воплощение зла, самая зловещая женщина из всех, что танцевали на этой Земле…»), его монолог в точности повторяет слова Сеймора из сериала «Fright Night».
Семья Фуллеров получила свою фамилию в честь режиссера Сэмюэля Фуллера.
Название фильма было позаимствовано с вывесок кинотеатров под открытым небом. Вывеска «От заката до рассвета» означала ночной нон-стоп. Также в картине Родригеза содержится множество ссылок на фильмы, предназначенные для подобных кинотеатров.
Известнейшая фраза «Нет, спасибо, я уже был женат» является импровизацией Джорджа Клуни. Роберт Родригез не собирался включать её в готовый вариант картины, однако после того как студия добавила данный эпизод в трейлер фильма, режиссеру не оставалось ничего, как добавить фразу в окончательный монтаж.
У Сальмы Хайек не было хореографа для её танца. Родригез просто сказал ей — чувствуй музыку и танцуй.
Декорации клуба были построены в пустыне в Калифорнии.
Изначально Секс-машина должен был быть мускулистым парнем со шрамами, носящим кожаный байкерский жилет, в то время как Фрост был более худым и «скользким» типом. Однако в готовом фильме характеристики персонажей поменяли местами.
Тим Рот и Стив Бушеми хотели сыграть Пита Боттомса, но не смогли этого сделать из-за занятости на других проектах.
Уильям Сэдлер должен был сыграть агента ФБР Стэнли Чейза.
Роль бандита в концовке фильма, которую сыграл Чич Марин, могла достаться Эрику Эстраде.
Создатели фильма намеренно окрасили кровь вампиров в зеленый цвет, для того чтобы избежать придирок со стороны комиссии по рейтингам.
В реальной жизни Сальма Хайек ненавидит змей.
Согласно бонусам на DVD, в сцене, где Секс-машина бьёт всех подряд, кто его окружает, Том Савини по-настоящему ударил множество каскадеров и актеров, включая Джорджа Клуни.
Роль Сета Геко могла достаться Тиму Роту, Джону Траволте, Майклу Мэдсону, Стиву Бушеми и Кристоферу Уокену. Все перечисленные актеры были согласны сыграть данного персонажа, но не смогли этого сделать из-за занятости на других проектах.
Изначально Квентин Тарантино должен был поставить фильм, но он решил не садиться в режиссерское кресло, для того чтобы сконцентрироваться на сценарии и своей актерской игре.
Дэнни Трехо сыграл одну из ролей в фильме. Примечательно, что имена его персонажей в данном фильме, «Отчаянном» (1995) и «Детях шпионов» (2001) связаны с ножами: Навахас в «Отчаянном» (на испанском «навахас» означает «нож»), Бритва Чарли в «От заката до рассвета» (1996), и Исадор «Мачете» Кортез в «Детях шпионов».
Диалог между Кейт и Сетом перед последним нападением вампиров — это практически дословное воспроизведение сцены из картины «Нападение на 13-й участок» (1976). Также Скотт Фуллер одет в футболку с надписью «Участок 13» (Precinct 13).
В первом варианте сценария выживала вся семья Фуллеров и братья Геко, однако Тарантино переписал сценарий, посчитав, что фильм получится более захватывающим, если в нём будут погибать главные персонажи.

Внимание!!! Для тех кто не знает, в переводе № 2 с Дмитрием Пучковым присутствует нецензурная лексика ...
Качество: BDRip / <a href="viewtopic.php?t=2982439" class="postLink">BDRemux 1080p</a>
Формат: MP4
Видео кодек: H.264
Аудио кодек: AAC
Видео: 960x540 AR:16/9 1740 kbps 23.976 fps
Аудио №1: [Russian] 2ch 48 kHz 128 kbps - [MVO]
Аудио №2: [Russian] 2ch 48 kHz 128 kbps - [MVO] Премьер Фильм
Аудио №3: [Russian] 2ch 48 kHz 128 kbps - [VO] Дмитрий Пучков (Гоблин)
Аудио №4: [Russian] 2ch 48 kHz 128 kbps - [VO] Андрей Гаврилов
Аудио №5: [Russian] 2ch 48 kHz 128 kbps - [VO] Юрий Живов
Аудио №6: [English] 2ch 48 kHz 128 kbps - [Original] Английский
avs [info]: 960x540p 1:1 @ 2997/125 fps (cfr)
x264 [info]: using SAR=1/1
x264 [info]: using cpu capabilities: MMX2 SSE2Fast SSSE3 SSE4.2 LZCNT
x264 [info]: profile High, level 4.1

x264 [info]: frame I:1327 Avg QP:19.00 size: 65148
x264 [info]: frame P:32332 Avg QP:22.65 size: 19065
x264 [info]: frame B:121472 Avg QP:25.00 size: 5796
x264 [info]: consecutive B-frames: 2.0% 2.9% 7.7% 14.6% 15.3% 41.6% 7.4% 2.4% 4.6% 1.4%
x264 [info]: mb I I16..4: 10.5% 71.9% 17.6%
x264 [info]: mb P I16..4: 1.0% 5.9% 1.1% P16..4: 36.5% 38.5% 9.8% 0.0% 0.0% skip: 7.2%
x264 [info]: mb B I16..4: 0.1% 0.6% 0.1% B16..8: 41.2% 15.5% 1.9% direct: 3.8% skip:36.8% L0:46.1% L1:47.5% BI: 6.4%
x264 [info]: 8x8 transform intra:73.8% inter:61.0%
x264 [info]: direct mvs spatial:98.9% temporal:1.1%
x264 [info]: coded y,uvDC,uvAC intra: 83.3% 74.9% 37.5% inter: 19.9% 16.8% 2.6%
x264 [info]: i16 v,h,dc,p: 27% 22% 5% 45%
x264 [info]: i8 v,h,dc,ddl,ddr,vr,hd,vl,hu: 6% 4% 5% 12% 17% 16% 15% 12% 12%
x264 [info]: i4 v,h,dc,ddl,ddr,vr,hd,vl,hu: 11% 7% 6% 9% 15% 15% 13% 12% 12%
x264 [info]: i8c dc,h,v,p: 34% 25% 21% 19%
x264 [info]: Weighted P-Frames: Y:4.5% UV:2.0%
x264 [info]: ref P L0: 45.6% 9.9% 18.2% 6.6% 5.7% 4.0% 3.8% 2.0% 2.0% 1.9% 0.2% 0.0%
x264 [info]: ref B L0: 72.9% 11.9% 6.2% 2.9% 2.1% 1.7% 1.4% 0.6% 0.2%
x264 [info]: ref B L1: 93.7% 6.3%
x264 [info]: kb/s:1739.59

encoded 155131 frames, 5.26 fps, 1739.59 kb/s
ОбщееПолное имя : D:\Torrents\From Dusk Till Dawn.Trilogy.1996-1999.BDRip.x264.960x\From Dusk Till Dawn.1996.BDRip.x264.960x.rip by Frost O.S.mp4Формат : MPEG-4Профиль формата : Base MediaИдентификатор кодека : isomРазмер файла : 1,91 ГбайтПродолжительность : 1 ч. 47 м.Режим общего битрейта : ПеременныйОбщий поток : 2530 Кбит/секНазвание фильма : From Dusk Till Dawn 1996 BDRip x264 960x rip by Frost O SЖанр : HorrorТип содержимого : Short FilmДата кодирования : UTC 2016-06-02 04:01:46Дата пометки : UTC 2016-06-02 04:04:18Программа кодирования : MkvToMp4 version: 0.224 (x64)Обложка : YesПримечание : rip by Frost O.SLongDescription : Спасаясь от полиции после ограбления банка, два брата — грабителя берут в заложники священника и его детей. Около американской границы они решают провести ночь в придорожном баре. Тут-то всё и начинается…

ВидеоИдентификатор : 1Формат : AVCФормат/Информация : Advanced Video CodecПрофиль формата : [email protected]Параметр CABAC формата : ДаПараметр ReFrames формата : 10 кадровИдентификатор кодека : avc1Идентификатор кодека/Информация : Advanced Video CodingПродолжительность : 1 ч. 47 м.Битрейт : 1740 Кбит/секМаксимальный битрейт : 9152 Кбит/секШирина : 960 пикселейВысота : 540 пикселейСоотношение сторон : 16:9Режим частоты кадров : ПостоянныйЧастота кадров : 23,976 кадра/секЦветовое пространство : YUVСубдискретизация насыщенности : 4:2:0Битовая глубина : 8 битТип развёртки : ПрогрессивнаяБит/(Пиксели*Кадры) : 0.140Размер потока : 1,31 Гбайт (69%)Библиотека кодирования : x264 core 148 r2692 64f4e24Настройки программы : cabac=1 / ref=10 / deblock=1:-2:-2 / analyse=0x3:0x113 / me=umh / subme=11 / psy=1 / psy_rd=1.20:0.00 / mixed_ref=1 / me_range=32 / chroma_me=1 / trellis=2 / 8x8dct=1 / cqm=0 / deadzone=21,11 / fast_pskip=0 / chroma_qp_offset=-2 / threads=3 / lookahead_threads=1 / sliced_threads=0 / nr=0 / decimate=0 / interlaced=0 / bluray_compat=0 / constrained_intra=0 / bframes=9 / b_pyramid=2 / b_adapt=2 / b_bias=0 / direct=3 / weightb=1 / open_gop=0 / weightp=2 / keyint=250 / keyint_min=23 / scenecut=40 / intra_refresh=0 / rc_lookahead=40 / rc=2pass / mbtree=1 / bitrate=1740 / ratetol=1.0 / qcomp=0.60 / qpmin=0 / qpmax=69 / qpstep=4 / cplxblur=20.0 / qblur=0.5 / ip_ratio=1.40 / aq=1:0.70Язык : EnglishДата кодирования : UTC 2016-06-02 04:01:46Дата пометки : UTC 2016-06-02 04:02:19Основные цвета : BT.709Характеристики трансфера : BT.709Коэффициенты матрицы : BT.709

Аудио #1Идентификатор : 2Формат : AACФормат/Информация : Advanced Audio CodecПрофиль формата : LCИдентификатор кодека : 40Продолжительность : 1 ч. 47 м.Вид битрейта : ПеременныйБитрейт : 128 Кбит/секМаксимальный битрейт : 132 Кбит/секКаналы : 2 каналаРасположение каналов : Front: L RЧастота : 48,0 КГцМетод сжатия : С потерямиРазмер потока : 98,9 Мбайт (5%)Заголовок : [MVO]Язык : RussianДата кодирования : UTC 2016-06-02 04:02:00Дата пометки : UTC 2016-06-02 04:02:19

Аудио #2Идентификатор : 3Формат : AACФормат/Информация : Advanced Audio CodecПрофиль формата : LCИдентификатор кодека : 40Продолжительность : 1 ч. 47 м.Вид битрейта : ПеременныйБитрейт : 128 Кбит/секМаксимальный битрейт : 135 Кбит/секКаналы : 2 каналаРасположение каналов : Front: L RЧастота : 48,0 КГцМетод сжатия : С потерямиРазмер потока : 98,7 Мбайт (5%)Заголовок : [MVO] Premier FilmЯзык : RussianДата кодирования : UTC 2016-06-02 04:02:03Дата пометки : UTC 2016-06-02 04:02:19

Аудио #3Идентификатор : 4Формат : AACФормат/Информация : Advanced Audio CodecПрофиль формата : LCИдентификатор кодека : 40Продолжительность : 1 ч. 47 м.Вид битрейта : ПеременныйБитрейт : 128 Кбит/секМаксимальный битрейт : 135 Кбит/секКаналы : 2 каналаРасположение каналов : Front: L RЧастота : 48,0 КГцМетод сжатия : С потерямиРазмер потока : 98,7 Мбайт (5%)Заголовок : [VO] Puchkov _Goblin_Язык : RussianДата кодирования : UTC 2016-06-02 04:02:05Дата пометки : UTC 2016-06-02 04:02:19

Аудио #4Идентификатор : 5Формат : AACФормат/Информация : Advanced Audio CodecПрофиль формата : LCИдентификатор кодека : 40Продолжительность : 1 ч. 47 м.Вид битрейта : ПеременныйБитрейт : 128 Кбит/секМаксимальный битрейт : 135 Кбит/секКаналы : 2 каналаРасположение каналов : Front: L RЧастота : 48,0 КГцМетод сжатия : С потерямиРазмер потока : 98,9 Мбайт (5%)Заголовок : [VO] GavrilovЯзык : RussianДата кодирования : UTC 2016-06-02 04:02:07Дата пометки : UTC 2016-06-02 04:02:19

Аудио #5Идентификатор : 6Формат : AACФормат/Информация : Advanced Audio CodecПрофиль формата : LCИдентификатор кодека : 40Продолжительность : 1 ч. 47 м.Вид битрейта : ПеременныйБитрейт : 128 Кбит/секМаксимальный битрейт : 135 Кбит/секКаналы : 2 каналаРасположение каналов : Front: L RЧастота : 48,0 КГцМетод сжатия : С потерямиРазмер потока : 98,7 Мбайт (5%)Заголовок : [VO] ZhuvovЯзык : RussianДата кодирования : UTC 2016-06-02 04:02:10Дата пометки : UTC 2016-06-02 04:02:19

Аудио #6Идентификатор : 7Формат : AACФормат/Информация : Advanced Audio CodecПрофиль формата : LCИдентификатор кодека : 40Продолжительность : 1 ч. 47 м.Вид битрейта : ПеременныйБитрейт : 128 Кбит/секМаксимальный битрейт : 135 Кбит/секКаналы : 2 каналаРасположение каналов : Front: L RЧастота : 48,0 КГцМетод сжатия : С потерямиРазмер потока : 98,7 Мбайт (5%)Заголовок : [Original]Язык : EnglishДата кодирования : UTC 2016-06-02 04:02:12Дата пометки : UTC 2016-06-02 04:02:19

Текст #1Идентификатор : 8Формат : Timed TextРежим смешивания : sbtlИдентификатор кодека : tx3gПродолжительность : 1 ч. 41 м.Вид битрейта : ПеременныйБитрейт : 77 бит/секРазмер потока : 57,3 Кбайт (0%)Язык : RussianДата кодирования : UTC 2016-06-02 04:02:19Дата пометки : UTC 2016-06-02 04:02:19

Текст #2Идентификатор : 9Формат : Timed TextРежим смешивания : sbtlИдентификатор кодека : tx3gПродолжительность : 1 ч. 41 м.Вид битрейта : ПеременныйБитрейт : 71 бит/секРазмер потока : 52,6 Кбайт (0%)Язык : UkrainianДата кодирования : UTC 2016-06-02 04:02:19Дата пометки : UTC 2016-06-02 04:02:19

Текст #3Идентификатор : 10Формат : Timed TextРежим смешивания : sbtlИдентификатор кодека : tx3gПродолжительность : 1 ч. 42 м.Вид битрейта : ПеременныйБитрейт : 96 бит/секРазмер потока : 72,3 Кбайт (0%)Заголовок : _Goblin_Язык : RussianДата кодирования : UTC 2016-06-02 04:02:19Дата пометки : UTC 2016-06-02 04:02:19

Текст #4Идентификатор : 11Формат : Timed TextРежим смешивания : sbtlИдентификатор кодека : tx3gПродолжительность : 1 ч. 41 м.Вид битрейта : ПеременныйБитрейт : 59 бит/секРазмер потока : 43,6 Кбайт (0%)Заголовок : [Original]Язык : EnglishДата кодирования : UTC 2016-06-02 04:02:19Дата пометки : UTC 2016-06-02 04:02:19
От заката до рассвета 2: Кровавые деньги из Техаса / From Dusk Till Dawn 2: Texas Blood Money«Just wade the edge of your mind, and you won't need money any more»»

Год выпуска: 1999
Страна: США
Жанр: ужасы, фэнтези, триллер, комедия, криминал
Продолжительность: 01:28:25
Перевод №1: Профессиональный (двухголосый, закадровый) R5
Перевод №2: Профессиональный (многоголосый, закадровый) РТР
Перевод №3: Авторский (одноголосый, закадровый) Андрей Гаврилов
Перевод №4: Авторский (одноголосый, закадровый) Андрей Дольский
Перевод №5: Авторский (одноголосый, закадровый) Андрей Юрий Живов
Перевод №6: Одноголосый (закадровый) Данис Нурмухаметов
Оригинальная дорожка: Есть
Cубтитры: Русские, английские (отключаемые, Softsub)
Режиссер: Скотт Шпигель / Scott Spiegel
В ролях: Роберт Патрик /Robert Patrick, Бо Хопкинс / Bo Hopkins, Дуан Уайтакер / Duane Whitaker, Мьюз Уотсон / Muse Watson, Бретт Харрельсон / Brett Harrelson, Рэймонд Крус / Raymond Cruz, Дэнни Трехо / Danny Trejo, Джеймс Паркс / James Parks, Стэйси Буржуа / Stacie Bourgeois, Мария Чека / Maria Checa, Тиффани Тиссен / Tiffani Thiessen, Брюс Кэмпбелл / Bruce Campbell и другие .
Описание: Пятеро крутых парней решают ограбить банк в Мексике. Они еще не сдвинулись с места, а полиция уже сидела на хвосте, разыскивая только что сбежавшего из-под стражи их сообщника Лютера. С ним Бак назначил встречу в пути. Все едва не сорвалось, когда ночью в дороге, неподалеку от бара «Крученые сиськи», у Лютера ломается машина…
Релиз группы

Хотя фильм и назван «От заката до рассвета 2», он не является ни продолжением первого фильма, ни его предысторией, а скорее дополнением. В фильме упоминаются братья Гекко — Отис говорит своему коллеге о том, что братья Гекко убили шерифа МакГроу (убийство шерифа МакГроу произошло в первом фильме по вине братьев Гекко). Однако, в фильме бар «Титти Твистер» все еще стоит, а не разгромлен, а один из его обитателей — бармен Бритва Чарли — все еще жив.
Скотт Шпигель, режиссер этого фильма, сыграл порнорежиссера, когда Хесус рассказывал историю о сестре своего друга.

Качество: BDRip / <a href="viewtopic.php?t=4807055" class="postLink">BDRemux 1080p</a>
Формат: MP4
Видео кодек: H.264
Аудио кодек: AAC
Видео: 960x522 AR:1.85 1455 kbps 23.976 fps
Аудио №1: [Russian] 2ch 48 kHz 128 kbps - [DVO] R5
Аудио №2: [Russian] 2ch 48 kHz 128 kbps - [MVO] РТР
Аудио №3: [Russian] 2ch 48 kHz 128 kbps - [VO] Андрей Гаврилов
Аудио №4: [Russian] 2ch 48 kHz 128 kbps - [VO] Андрей Дольский
Аудио №5: [Russian] 2ch 48 kHz 128 kbps - [VO] Юрий Живов
Аудио №6: [Russian] 2ch 48 kHz 128 kbps - [VO] Данис Нурмухаметов
Аудио №7: [English] 2ch 48 kHz 128 kbps - [Original] Английский
avs [info]: 960x522p 1:1 @ 2997/125 fps (cfr)
x264 [info]: using SAR=1/1
x264 [info]: using cpu capabilities: MMX2 SSE2Fast SSSE3 SSE4.2 LZCNT
x264 [info]: profile High, level 4.1

x264 [info]: frame I:947 Avg QP:17.14 size: 49384
x264 [info]: frame P:33291 Avg QP:20.95 size: 14252
x264 [info]: frame B:92955 Avg QP:23.11 size: 4770
x264 [info]: consecutive B-frames: 4.0% 5.5% 15.0% 26.5% 16.6% 28.3% 2.1% 2.1%
x264 [info]: mb I I16..4: 15.3% 65.8% 19.0%
x264 [info]: mb P I16..4: 2.1% 6.5% 1.0% P16..4: 36.2% 37.6% 8.1% 0.0% 0.0% skip: 8.4%
x264 [info]: mb B I16..4: 0.1% 0.8% 0.1% B16..8: 36.1% 13.5% 1.5% direct: 4.0% skip:43.8% L0:44.5% L1:49.2% BI: 6.3%
x264 [info]: 8x8 transform intra:69.4% inter:63.2%
x264 [info]: direct mvs spatial:98.3% temporal:1.7%
x264 [info]: coded y,uvDC,uvAC intra: 70.1% 62.7% 23.8% inter: 16.0% 19.0% 2.6%
x264 [info]: i16 v,h,dc,p: 21% 20% 4% 55%
x264 [info]: i8 v,h,dc,ddl,ddr,vr,hd,vl,hu: 5% 5% 6% 12% 17% 15% 16% 12% 13%
x264 [info]: i4 v,h,dc,ddl,ddr,vr,hd,vl,hu: 8% 7% 8% 10% 15% 13% 14% 11% 14%
x264 [info]: i8c dc,h,v,p: 31% 32% 19% 18%
x264 [info]: Weighted P-Frames: Y:5.7% UV:3.0%
x264 [info]: ref P L0: 49.2% 6.8% 17.1% 6.6% 5.1% 4.0% 3.6% 2.0% 1.8% 1.7% 1.7% 0.3% 0.0%
x264 [info]: ref B L0: 78.2% 9.7% 4.5% 2.1% 1.6% 1.3% 1.1% 0.7% 0.5% 0.2%
x264 [info]: ref B L1: 95.6% 4.4%
x264 [info]: kb/s:1454.64

encoded 127193 frames, 5.81 fps, 1454.64 kb/s
ОбщееПолное имя : D:\Torrents\From Dusk Till Dawn.Trilogy.1996-1999.BDRip.x264.960x\From Dusk Till Dawn 2 Texas Blood Money.1999.BDRip.x264.960x.rip by Frost O.S.mp4Формат : MPEG-4Профиль формата : Base MediaИдентификатор кодека : isomРазмер файла : 1,47 ГбайтПродолжительность : 1 ч. 28 м.Режим общего битрейта : ПеременныйОбщий поток : 2380 Кбит/секНазвание фильма : From Dusk Till Dawn 2 Texas Blood Money 1999 BDRip x264 960x rip by Frost O SЖанр : HorrorТип содержимого : Short FilmДата кодирования : UTC 2016-06-02 04:19:42Дата пометки : UTC 2016-06-02 04:20:59Программа кодирования : MkvToMp4 version: 0.224 (x64)Обложка : YesПримечание : rip by Frost O.SLongDescription : Пятеро крутых парней решают ограбить банк в Мексике. Они еще не сдвинулись с места, а полиция уже сидела на хвосте, разыскивая только что сбежавшего из-под стражи их сообщника Лютера. С ним Бак назначил встречу в пути. Все едва не сорвалось, когда ночью в дороге, неподалеку от бара «Крученые сиськи», у Лютера ломается машина…

ВидеоИдентификатор : 1Формат : AVCФормат/Информация : Advanced Video CodecПрофиль формата : [email protected]Параметр CABAC формата : ДаПараметр ReFrames формата : 11 кадровИдентификатор кодека : avc1Идентификатор кодека/Информация : Advanced Video CodingПродолжительность : 1 ч. 28 м.Битрейт : 1455 Кбит/секМаксимальный битрейт : 11,9 Мбит/секШирина : 960 пикселейВысота : 522 пикселяСоотношение сторон : 1,85:1Режим частоты кадров : ПостоянныйЧастота кадров : 23,976 кадра/секЦветовое пространство : YUVСубдискретизация насыщенности : 4:2:0Битовая глубина : 8 битТип развёртки : ПрогрессивнаяБит/(Пиксели*Кадры) : 0.121Размер потока : 920 Мбайт (61%)Библиотека кодирования : x264 core 148 r2692 64f4e24Настройки программы : cabac=1 / ref=11 / deblock=1:-2:-2 / analyse=0x3:0x113 / me=umh / subme=11 / psy=1 / psy_rd=1.20:0.00 / mixed_ref=1 / me_range=32 / chroma_me=1 / trellis=2 / 8x8dct=1 / cqm=0 / deadzone=21,11 / fast_pskip=0 / chroma_qp_offset=-2 / threads=3 / lookahead_threads=1 / sliced_threads=0 / nr=0 / decimate=0 / interlaced=0 / bluray_compat=0 / constrained_intra=0 / bframes=7 / b_pyramid=2 / b_adapt=2 / b_bias=0 / direct=3 / weightb=1 / open_gop=0 / weightp=2 / keyint=250 / keyint_min=23 / scenecut=40 / intra_refresh=0 / rc_lookahead=40 / rc=2pass / mbtree=1 / bitrate=1455 / ratetol=1.0 / qcomp=0.60 / qpmin=0 / qpmax=69 / qpstep=4 / cplxblur=20.0 / qblur=0.5 / ip_ratio=1.40 / aq=1:0.70Язык : EnglishДата кодирования : UTC 2016-06-02 04:19:42Дата пометки : UTC 2016-06-02 04:20:21Основные цвета : BT.709Характеристики трансфера : BT.709Коэффициенты матрицы : BT.709

Аудио #1Идентификатор : 2Формат : AACФормат/Информация : Advanced Audio CodecПрофиль формата : LCИдентификатор кодека : 40Продолжительность : 1 ч. 28 м.Вид битрейта : ПеременныйБитрейт : 128 Кбит/секМаксимальный битрейт : 135 Кбит/секКаналы : 2 каналаРасположение каналов : Front: L RЧастота : 48,0 КГцМетод сжатия : С потерямиРазмер потока : 81,0 Мбайт (5%)Заголовок : [DVO] R5Язык : RussianДата кодирования : UTC 2016-06-02 04:19:57Дата пометки : UTC 2016-06-02 04:20:21

Аудио #2Идентификатор : 3Формат : AACФормат/Информация : Advanced Audio CodecПрофиль формата : LCИдентификатор кодека : 40Продолжительность : 1 ч. 28 м.Вид битрейта : ПеременныйБитрейт : 128 Кбит/секМаксимальный битрейт : 133 Кбит/секКаналы : 2 каналаРасположение каналов : Front: L RЧастота : 48,0 КГцМетод сжатия : С потерямиРазмер потока : 80,9 Мбайт (5%)Заголовок : [MVO] PTPЯзык : RussianДата кодирования : UTC 2016-06-02 04:19:59Дата пометки : UTC 2016-06-02 04:20:21

Аудио #3Идентификатор : 4Формат : AACФормат/Информация : Advanced Audio CodecПрофиль формата : LCИдентификатор кодека : 40Продолжительность : 1 ч. 28 м.Вид битрейта : ПеременныйБитрейт : 128 Кбит/секМаксимальный битрейт : 135 Кбит/секКаналы : 2 каналаРасположение каналов : Front: L RЧастота : 48,0 КГцМетод сжатия : С потерямиРазмер потока : 81,0 Мбайт (5%)Заголовок : [VO] GavrilovЯзык : RussianДата кодирования : UTC 2016-06-02 04:20:01Дата пометки : UTC 2016-06-02 04:20:21

Аудио #4Идентификатор : 5Формат : AACФормат/Информация : Advanced Audio CodecПрофиль формата : LCИдентификатор кодека : 40Продолжительность : 1 ч. 28 м.Вид битрейта : ПеременныйБитрейт : 128 Кбит/секМаксимальный битрейт : 132 Кбит/секКаналы : 2 каналаРасположение каналов : Front: L RЧастота : 48,0 КГцМетод сжатия : С потерямиРазмер потока : 81,0 Мбайт (5%)Заголовок : [VO] DolskiyЯзык : RussianДата кодирования : UTC 2016-06-02 04:20:03Дата пометки : UTC 2016-06-02 04:20:21

Аудио #5Идентификатор : 6Формат : AACФормат/Информация : Advanced Audio CodecПрофиль формата : LCИдентификатор кодека : 40Продолжительность : 1 ч. 28 м.Вид битрейта : ПеременныйБитрейт : 128 Кбит/секМаксимальный битрейт : 133 Кбит/секКаналы : 2 каналаРасположение каналов : Front: L RЧастота : 48,0 КГцМетод сжатия : С потерямиРазмер потока : 80,9 Мбайт (5%)Заголовок : [VO] ZhuvovЯзык : RussianДата кодирования : UTC 2016-06-02 04:20:05Дата пометки : UTC 2016-06-02 04:20:21

Аудио #6Идентификатор : 7Формат : AACФормат/Информация : Advanced Audio CodecПрофиль формата : LCИдентификатор кодека : 40Продолжительность : 1 ч. 28 м.Вид битрейта : ПеременныйБитрейт : 128 Кбит/секМаксимальный битрейт : 135 Кбит/секКаналы : 2 каналаРасположение каналов : Front: L RЧастота : 48,0 КГцМетод сжатия : С потерямиРазмер потока : 81,0 Мбайт (5%)Заголовок : [VO] NurmyxametovЯзык : RussianДата кодирования : UTC 2016-06-02 04:20:07Дата пометки : UTC 2016-06-02 04:20:21

Аудио #7Идентификатор : 8Формат : AACФормат/Информация : Advanced Audio CodecПрофиль формата : LCИдентификатор кодека : 40Продолжительность : 1 ч. 28 м.Вид битрейта : ПеременныйБитрейт : 128 Кбит/секМаксимальный битрейт : 135 Кбит/секКаналы : 2 каналаРасположение каналов : Front: L RЧастота : 48,0 КГцМетод сжатия : С потерямиРазмер потока : 81,0 Мбайт (5%)Заголовок : [Original]Язык : EnglishДата кодирования : UTC 2016-06-02 04:20:09Дата пометки : UTC 2016-06-02 04:20:21

Текст #1Идентификатор : 9Формат : Timed TextРежим смешивания : sbtlИдентификатор кодека : tx3gПродолжительность : 1 ч. 22 м.Вид битрейта : ПеременныйБитрейт : 51 бит/секРазмер потока : 30,7 Кбайт (0%)Язык : RussianДата кодирования : UTC 2016-06-02 04:20:21Дата пометки : UTC 2016-06-02 04:20:21

Текст #2Идентификатор : 10Формат : Timed TextРежим смешивания : sbtlИдентификатор кодека : tx3gПродолжительность : 1 ч. 22 м.Вид битрейта : ПеременныйБитрейт : 45 бит/секРазмер потока : 27,3 Кбайт (0%)Заголовок : [Original]Язык : EnglishДата кодирования : UTC 2016-06-02 04:20:21Дата пометки : UTC 2016-06-02 04:20:21
От заката до рассвета 3: Дочь палача / From Dusk Till Dawn 3: The Hangman's Daughter«Take part in some amazing thrill-ride»

Год выпуска: 1999
Страна: США
Жанр: ужасы, фэнтези, боевик, триллер, комедия, приключения, вестерн
Продолжительность: 01:33:02
Перевод №1: Профессиональный (многоголосый, закадровый R5
Перевод №2: Профессиональный (многоголосый, закадровый РТР
Перевод №3: Авторский (одноголосый, закадровый Сергей Визгунов
Перевод №4: Авторский (одноголосый, закадровый) Андрей Гаврилов
Оригинальная дорожка: Есть
Cубтитры: Русские, английские (отключаемые, Softsub)
Режиссер: П.Дж. Пеше / P.J. Pesce
В ролях: Марко Леонарди / Marco Leonardi, Майкл Паркс /Michael Parks, Темуэра Моррисон / Temuera Morrison, Ребекка Гэйхарт / Rebecca Gayheart, Ара Сели / Ara Celi, Ленни Лофтин / Lennie Loftin, Соня Брага / Sonia Braga, Орландо Джонс / Orlando Jones, Дэнни Трехо / Danny Trejo, Джордана Спиро / Jordana Spiro, Кевин Смит / Kevin Smith, Теренс Бриджетт / Terence Bridgett и другие .
Описание: Такие отчаянные бандиты, как Джонни, рано или поздно оказываются на виселице. На этот раз Джонни повезло: в безумной перестрелке таинственный незнакомец спасает его от смерти, и он бежит, похитив дочь своего палача — Эсмеральду. Взбешенный и опозоренный, палач бросается в погоню. И когда возмездие было почти неизбежным, яростные противники оказываются перед лицом общей угрозы, способной изменить все. И навсегда…
Релиз группы

На самом деле первым продолжением был снят данный фильм, но в прокат он вышел только после того, как была снята картина «Кровавые деньги из Техаса».
В фильме Амброз Бирс в своих видениях видит, как его представляет к стенке группа мексиканских солдат и расстреливает. Перед этим он просит снять с его головы мешок, чтобы увидеть глаза тех, кто в него стреляет. Известно, что 11 января 1914 года один из офицеров повстанческой армии Панчо Вильи сообщил о «каком-то старом гринго, расстрелянном у стен крепости».

Качество: BDRip / <a href="viewtopic.php?t=3927079" class="postLink">BDRemux 1080p</a>
Формат: MP4
Видео кодек: H.264
Аудио кодек: AAC
Видео: 960x518 AR:1.85 1655 kbps 23.976 fps
Аудио №1: [Russian] 2ch 48 kHz 128 kbps - [MVO] R5
Аудио №2: [Russian] 2ch 48 kHz 128 kbps - [MVO] РТР
Аудио №3: [Russian] 2ch 48 kHz 128 kbps - [VO] Сергей Визгунов
Аудио №4: [Russian] 2ch 48 kHz 128 kbps - [VO] Андрей Гаврилов
Аудио №5: [English] 2ch 48 kHz 128 kbps - [Original] Английский
avs [info]: 960x518p 1:1 @ 2997/125 fps (cfr)
x264 [info]: using SAR=1/1
x264 [info]: using cpu capabilities: MMX2 SSE2Fast SSSE3 SSE4.2 LZCNT
x264 [info]: profile High, level 4.1

x264 [info]: frame I:1159 Avg QP:18.88 size: 51936
x264 [info]: frame P:32130 Avg QP:22.48 size: 16806
x264 [info]: frame B:100548 Avg QP:24.47 size: 5514
x264 [info]: consecutive B-frames: 3.1% 4.4% 11.2% 24.8% 17.6% 28.8% 5.7% 2.6% 1.1% 0.7%
x264 [info]: mb I I16..4: 9.8% 73.9% 16.3%
x264 [info]: mb P I16..4: 1.0% 8.3% 1.2% P16..4: 37.1% 37.1% 8.9% 0.0% 0.0% skip: 6.5%
x264 [info]: mb B I16..4: 0.1% 0.9% 0.1% B16..8: 41.1% 16.6% 1.9% direct: 4.0% skip:35.2% L0:46.4% L1:47.1% BI: 6.5%
x264 [info]: 8x8 transform intra:78.7% inter:69.6%
x264 [info]: direct mvs spatial:98.6% temporal:1.4%
x264 [info]: coded y,uvDC,uvAC intra: 82.2% 82.9% 51.3% inter: 20.7% 23.8% 6.2%
x264 [info]: i16 v,h,dc,p: 21% 15% 4% 61%
x264 [info]: i8 v,h,dc,ddl,ddr,vr,hd,vl,hu: 9% 4% 4% 12% 18% 16% 15% 12% 10%
x264 [info]: i4 v,h,dc,ddl,ddr,vr,hd,vl,hu: 11% 4% 4% 11% 17% 17% 14% 12% 11%
x264 [info]: i8c dc,h,v,p: 35% 20% 20% 25%
x264 [info]: Weighted P-Frames: Y:7.7% UV:4.9%
x264 [info]: ref P L0: 47.7% 11.0% 16.2% 6.5% 4.9% 3.7% 3.2% 1.8% 1.7% 1.5% 1.5% 0.2% 0.0%
x264 [info]: ref B L0: 77.4% 9.8% 5.1% 2.4% 1.7% 1.3% 1.1% 0.6% 0.4% 0.2%
x264 [info]: ref B L1: 95.3% 4.7%
x264 [info]: kb/s:1654.75

encoded 133837 frames, 4.88 fps, 1654.75 kb/s
ОбщееПолное имя : D:\Torrents\From Dusk Till Dawn.Trilogy.1996-1999.BDRip.x264.960x\From Dusk Till Dawn 3 The Hangman's Daughter.1999.BDRip.x264.960x.rip by Frost O.S.mp4Формат : MPEG-4Профиль формата : Base MediaИдентификатор кодека : isomРазмер файла : 1,51 ГбайтПродолжительность : 1 ч. 33 м.Режим общего битрейта : ПеременныйОбщий поток : 2317 Кбит/секНазвание фильма : From Dusk Till Dawn 3 The Hangman's Daughter 1999 BDRip x264 960x rip by Frost O SЖанр : HorrorТип содержимого : Short FilmДата кодирования : UTC 2016-06-02 15:03:34Дата пометки : UTC 2016-06-02 15:07:07Программа кодирования : MkvToMp4 version: 0.224 (x64)Обложка : YesПримечание : rip by Frost O.SLongDescription : Такие отчаянные бандиты, как Джонни, рано или поздно оказываются на виселице. На этот раз Джонни повезло: в безумной перестрелке таинственный незнакомец спасает его от смерти, и он бежит, похитив дочь своего палача — Эсмеральду. Взбешенный и опозоренный, палач бросается в погоню. И когда возмездие было почти неизбежным, яростные противники оказываются перед лицом общей угрозы, способной изменить все. И навсегда…

ВидеоИдентификатор : 1Формат : AVCФормат/Информация : Advanced Video CodecПрофиль формата : [email protected]Параметр CABAC формата : ДаПараметр ReFrames формата : 11 кадровИдентификатор кодека : avc1Идентификатор кодека/Информация : Advanced Video CodingПродолжительность : 1 ч. 33 м.Битрейт : 1655 Кбит/секМаксимальный битрейт : 6416 Кбит/секШирина : 960 пикселейВысота : 518 пикселейСоотношение сторон : 1,85:1Режим частоты кадров : ПостоянныйЧастота кадров : 23,976 кадра/секЦветовое пространство : YUVСубдискретизация насыщенности : 4:2:0Битовая глубина : 8 битТип развёртки : ПрогрессивнаяБит/(Пиксели*Кадры) : 0.139Размер потока : 1,08 Гбайт (71%)Библиотека кодирования : x264 core 148 r2692 64f4e24Настройки программы : cabac=1 / ref=11 / deblock=1:-2:-2 / analyse=0x3:0x113 / me=umh / subme=11 / psy=1 / psy_rd=1.20:0.00 / mixed_ref=1 / me_range=32 / chroma_me=1 / trellis=2 / 8x8dct=1 / cqm=0 / deadzone=21,11 / fast_pskip=0 / chroma_qp_offset=-2 / threads=3 / lookahead_threads=1 / sliced_threads=0 / nr=0 / decimate=0 / interlaced=0 / bluray_compat=0 / constrained_intra=0 / bframes=9 / b_pyramid=2 / b_adapt=2 / b_bias=0 / direct=3 / weightb=1 / open_gop=0 / weightp=2 / keyint=250 / keyint_min=23 / scenecut=40 / intra_refresh=0 / rc_lookahead=40 / rc=2pass / mbtree=1 / bitrate=1655 / ratetol=1.0 / qcomp=0.60 / qpmin=0 / qpmax=69 / qpstep=4 / cplxblur=20.0 / qblur=0.5 / ip_ratio=1.40 / aq=1:0.70Язык : EnglishДата кодирования : UTC 2016-06-02 15:03:34Дата пометки : UTC 2016-06-02 15:04:33Основные цвета : BT.709Характеристики трансфера : BT.709Коэффициенты матрицы : BT.709

Аудио #1Идентификатор : 2Формат : AACФормат/Информация : Advanced Audio CodecПрофиль формата : LCИдентификатор кодека : 40Продолжительность : 1 ч. 32 м.Вид битрейта : ПеременныйБитрейт : 128 Кбит/секМаксимальный битрейт : 133 Кбит/секКаналы : 2 каналаРасположение каналов : Front: L RЧастота : 48,0 КГцМетод сжатия : С потерямиРазмер потока : 85,1 Мбайт (6%)Заголовок : [MVO] R5Язык : RussianДата кодирования : UTC 2016-06-02 15:03:50Дата пометки : UTC 2016-06-02 15:04:33

Аудио #2Идентификатор : 3Формат : AACФормат/Информация : Advanced Audio CodecПрофиль формата : LCИдентификатор кодека : 40Продолжительность : 1 ч. 32 м.Вид битрейта : ПеременныйБитрейт : 128 Кбит/секМаксимальный битрейт : 132 Кбит/секКаналы : 2 каналаРасположение каналов : Front: L RЧастота : 48,0 КГцМетод сжатия : С потерямиРазмер потока : 85,1 Мбайт (6%)Заголовок : [MVO] PTPЯзык : RussianДата кодирования : UTC 2016-06-02 15:04:04Дата пометки : UTC 2016-06-02 15:04:33

Аудио #3Идентификатор : 4Формат : AACФормат/Информация : Advanced Audio CodecПрофиль формата : LCИдентификатор кодека : 40Продолжительность : 1 ч. 32 м.Вид битрейта : ПеременныйБитрейт : 128 Кбит/секМаксимальный битрейт : 134 Кбит/секКаналы : 2 каналаРасположение каналов : Front: L RЧастота : 48,0 КГцМетод сжатия : С потерямиРазмер потока : 85,1 Мбайт (6%)Заголовок : [VO] VizgunovЯзык : RussianДата кодирования : UTC 2016-06-02 15:04:11Дата пометки : UTC 2016-06-02 15:04:33

Аудио #4Идентификатор : 5Формат : AACФормат/Информация : Advanced Audio CodecПрофиль формата : LCИдентификатор кодека : 40Продолжительность : 1 ч. 32 м.Вид битрейта : ПеременныйБитрейт : 128 Кбит/секМаксимальный битрейт : 134 Кбит/секКаналы : 2 каналаРасположение каналов : Front: L RЧастота : 48,0 КГцМетод сжатия : С потерямиРазмер потока : 85,1 Мбайт (6%)Заголовок : [VO] GavrilovЯзык : RussianДата кодирования : UTC 2016-06-02 15:04:17Дата пометки : UTC 2016-06-02 15:04:33

Аудио #5Идентификатор : 6Формат : AACФормат/Информация : Advanced Audio CodecПрофиль формата : LCИдентификатор кодека : 40Продолжительность : 1 ч. 32 м.Вид битрейта : ПеременныйБитрейт : 128 Кбит/секМаксимальный битрейт : 135 Кбит/секКаналы : 2 каналаРасположение каналов : Front: L RЧастота : 48,0 КГцМетод сжатия : С потерямиРазмер потока : 85,1 Мбайт (6%)Заголовок : [Original]Язык : EnglishДата кодирования : UTC 2016-06-02 15:04:24Дата пометки : UTC 2016-06-02 15:04:33

Текст #1Идентификатор : 7Формат : Timed TextРежим смешивания : sbtlИдентификатор кодека : tx3gПродолжительность : 1 ч. 26 м.Вид битрейта : ПеременныйБитрейт : 60 бит/секРазмер потока : 37,9 Кбайт (0%)Язык : RussianДата кодирования : UTC 2016-06-02 15:04:33Дата пометки : UTC 2016-06-02 15:04:33

Текст #2Идентификатор : 8Формат : Timed TextРежим смешивания : sbtlИдентификатор кодека : tx3gПродолжительность : 1 ч. 26 м.Вид битрейта : ПеременныйБитрейт : 37 бит/секРазмер потока : 23,4 Кбайт (0%)Заголовок : [Original]Язык : EnglishДата кодирования : UTC 2016-06-02 15:04:33Дата пометки : UTC 2016-06-02 15:04:33
Хочу выразить отдельную благодарность пользователю и Snake1965 за помощь в оформлении раздачи

Трекер:  [ 02-Июн-2016 16:30 ]

  

Скачать .torrent

Размер .torrent файла 25 KB


Размер: 4.88 GB
Хэш (hash) релиза: 54c96ffd6a3c3d679350144fb4921bf8171252a1

Еще никто не оставлял запись к записи скачать торрент [VIDEO] От заката до рассвета: Трилогия From Dusk Till Dawn: Trilogy . Будь первым!

!Обратная связь